Ссылка на приватное зеркало нашего сайта всего за 1$. Внимание количество ограничено!!!

2 сезон

iTunes

1 сезон

1

iTunes

iTunes

iTunes

1 сезон

RePack

30

ИГРА 18+

pack

ВАЖНО

!!Акция!!

Alien_RageХит недели

RePack

MK11
pack

Забери бонус

RePack

jed

!!Акция!!

Alien_Rage

RePack

fifa19

RePack

Assassins Creed: Odyssey

RePack

NEED FOR SPEED™ PAYBACK

4 сезон

9 сезон

Бесстыжие 9 сезон

Все сериалы

все сериалы на PB.wtf

RePack

FAR CRY 5
  

Вне себя / Self/less (Тарсем Сингх ) [2015, фантастика, триллер, боевик, BDRip 1080p от _denis_100 / NNNB, Дублированный - [Лицензия] pb.wtf

Вне себя через торрент pb.wtf

Размер: 7.76 GB | Добавлен: 5 лет назад | Торрент скачан:763 раза
Скачать  

07-10-2015 09:33 Вне себя Скачать торрент  

Вне/себя / Self/less
«У бессмертия есть побочные эффекты»


Год выпуска: 2015
Страна: США
Жанр: фантастика, триллер, боевик
Продолжительность: 01:52:12
Перевод: Дублированный - [Лицензия]

Режиссер: Тарсем Сингх
В ролях: Райан Рейнольдс , Бен Кингсли , Натали Мартинес , Мэттью Гуд , Виктор Гарбер , Дерек Люк , Джейни-Линн Кинчен , Мелора Хардин , Мишель Докери , Сэмюэл Пейдж , Брендан МакКарти , Томас Мерфи
Описание:
Один ученый нашел способ победить смерть с помощью имплантации своего сознания в молодое тело, созданное методом генной инженерии. Операция эта дорогостоящая и проводится подпольно, а поэтому доступна лишь ограниченному кругу лиц. Умирающий пожилой бизнесмен решается на это и получает возможность прожить еще одну жизнь. Однако когда ему приоткрывается тайна происхождения нового тела, за ним начинает охоту секретная организация, которая не остановится ни перед чем, чтобы защитить свои интересы.

PG-13 - Детям до 13 лет просмотр не желателен
Качество: BDRip 1080p
Контейнер (Расширение): MKV
Видео: 1920x1080, 9261 Кбит/сек, 25 кадр/сек, 0,179 Бит/[Пиксели*Кадры]
Аудио: русский / AC3 / 5.1 / 48 kHz / 640 kbps / 16 bit |Дублированный|
Навигация по главам(Чаптеры): естьАвтор рипа: Сообщество:
  • Машины, которые используются в фильме для переноса разума из одного тела в другое, это модифицированные томографы.
  • Часы главного героя, которые хорошо видны на 27-й минуте, это Luminor Marina Acciaio.
  • Во множестве автомобильных аварий в фильме в машинах не срабатывают подушки безопасности.
  • Когда Антон входит в ванную, на двери нет отверстия от пули.
  • Главный герой фильма приезжает в дом у водонапорной башни, когда он открывает заднюю дверь, он это делает на половину, а в кадре когда он заходит в дом, дверь уже чуть-чуть приоткрыта.
  • Код:

    Format                                   : Matroska
    Format version                           : Version 2
    File size                                : 7.76 GiB
    Duration                                 : 1h 52mn
    Overall bit rate                         : 9 896 Kbps
    Movie name                               : Selfless.(2015).BDRip.1080p.[denis100]
    Encoded date                             : UTC 2015-10-07 09:17:11
    Writing application                      : mkvmerge v5.8.0 ('No Sleep / Pillow') built on Sep  2 2012 15:37:04
    Writing library                          : libebml v1.2.3 + libmatroska v1.3.0

    Video
    ID                                       : 1
    Format                                   : AVC
    Format/Info                              : Advanced Video Codec
    Format profile                           : High@L4.1
    Format settings, CABAC                   : Yes
    Format settings, ReFrames                : 4 frames
    Codec ID                                 : V_MPEG4/ISO/AVC
    Duration                                 : 1h 52mn
    Bit rate                                 : 9 261 Kbps
    Width                                    : 1 920 pixels
    Height                                   : 1 080 pixels
    Display aspect ratio                     : 16:9
    Frame rate                               : 25.000 fps
    Color space                              : YUV
    Chroma subsampling                       : 4:2:0
    Bit depth                                : 8 bits
    Scan type                                : Progressive
    Bits/(Pixel*Frame)                       : 0.179
    Stream size                              : 7.10 GiB (92%)
    Title                                    : Selfless.(2015).BDRip.1080p.[denis100]
    Writing library                          : x264 core 148 r2597 e86f3a1
    Encoding settings                        : cabac=1 / ref=4 / deblock=1:-3:-3 / analyse=0x3:0x133 / me=umh / subme=11 / psy=1 / psy_rd=1.00:0.00 / mixed_ref=1 / me_range=32 / chroma_me=1 / trellis=2 / 8x8dct=1 / cqm=0 / deadzone=21,11 / fast_pskip=0 / chroma_qp_offset=-2 / threads=6 / lookahead_threads=1 / sliced_threads=0 / nr=0 / decimate=1 / interlaced=0 / bluray_compat=0 / constrained_intra=0 / bframes=10 / b_pyramid=2 / b_adapt=2 / b_bias=0 / direct=3 / weightb=1 / open_gop=0 / weightp=2 / keyint=250 / keyint_min=25 / scenecut=40 / intra_refresh=0 / rc=2pass / mbtree=0 / bitrate=9261 / ratetol=1.0 / qcomp=0.60 / qpmin=0 / qpmax=69 / qpstep=4 / cplxblur=20.0 / qblur=0.5 / ip_ratio=1.40 / pb_ratio=1.30 / aq=2:0.90
    Language                                 : English
    Default                                  : Yes
    Forced                                   : No

    Audio
    ID                                       : 2
    Format                                   : AC-3
    Format/Info                              : Audio Coding 3
    Mode extension                           : CM (complete main)
    Codec ID                                 : A_AC3
    Duration                                 : 1h 52mn
    Bit rate mode                            : Constant
    Bit rate                                 : 640 Kbps
    Channel(s)                               : 6 channels
    Channel positions                        : Front: L C R, Side: L R, LFE
    Sampling rate                            : 48.0 KHz
    Bit depth                                : 16 bits
    Compression mode                         : Lossy
    Stream size                              : 514 MiB (6%)
    Title                                    : Дублированный
    Language                                 : Russian
    Default                                  : Yes
    Forced                                   : No

    Menu
    00:00:00.000                             : en:00:00:00.000
    00:06:28.320                             : en:00:06:28.320
    00:15:50.360                             : en:00:15:50.360
    00:27:05.160                             : en:00:27:05.160
    00:34:46.400                             : en:00:34:46.400
    00:42:07.880                             : en:00:42:07.880
    00:56:07.840                             : en:00:56:07.840
    01:04:01.200                             : en:01:04:01.200
    01:12:03.200                             : en:01:12:03.200
    01:23:44.000                             : en:01:23:44.000
    01:28:27.800                             : en:01:28:27.800
    01:39:28.080                             : en:01:39:28.080

    x264 [info]: frame I:1680 Avg QP:13.04 size:230501
    x264 [info]: frame P:42522 Avg QP:15.53 size: 76169
    x264 [info]: frame B:124099 Avg QP:17.34 size: 33530
    x264 [info]: consecutive B-frames: 5.3% 4.5% 13.9% 16.4% 11.1% 37.9% 7.3% 1.3% 1.1% 0.4% 0.9%
    pb.wtf



    Скачать Вне себя через торрент http://i71.fastpic.ru/big/2015/1007/84/405f2f6df67dd5406cf506e4d366e684.png Скачать фильм Вне себя через торрент бесплантно в хорошем качестве Описание:Один ученый нашел способ победить смерть с помощью имплантации своего сознания в молодое тело, созданное методом генной инженерии. ... 9.8 10 19
    Info! Золотая раздача, скачанное не засчитывается.
    Торрент: Зарегистрирован [2015-10-07 09:33] · скачан: 763 раз
    Статус: √ проверено
    Размер: 7.76 GB
    Как cкачать? Как скачать Вне себя через торрент | qTorrent

    % Раздел Тема Автор DL S | L
    Фильмы 2015 [DVDrip, WEB-DLRip, HDrip] [ 2.18 GB ] Вне/себя / Self/less [2015 BDRip-AVC от sokol_ok] [NOR Transfer] DUB sokol_ok Скачать
    2 | 0
    Фильмы 2015 [DVDrip, WEB-DLRip, HDrip] [ 1.46 GB ] Вне/себя / Self/less [2015 BDRip-AVC от sokol_ok] [NOR Transfer] DUB sokol_ok Скачать
    2 | 0
    Фильмы (Blu-ray, BD-Remux, HDDVD) [ 32.44 GB ] Вне/себя / Self/less [2015 Blu-Ray Remux 1080p] [NOR Transfer] [] killermax2013 Скачать
    1 | 0
    Фильмы (WEB-DL 720p, 1080p) [ 3.48 GB ] Вне себя / self less [2015 WEB-DL 720p ] GEKADOL Скачать
    1 | 0
    Фильмы 2015 [DVDrip, WEB-DLRip, HDrip] [ 2.18 GB ] Вне себя / Self/less [2015 BDRip-AVC] DUB potroks Скачать
    1 | 0
    Фильмы 2015 [DVDrip, WEB-DLRip, HDrip] [ 1.46 GB ] Вне себя / Self/less [2015 BDRip] [NOR Transfer] [] killermax2013 Скачать
    1 | 0
    Фильмы 2015 [DVDrip, WEB-DLRip, HDrip] [ 1.46 GB ] Вне себя / Self/less [2015 BDRip-AVC] DUB potroks Скачать
    1 | 0

    28-11-2019 20:33  

    Отключить всю рекламу на сайте

    07-10-2015 09:55 Вне себя Скачать торрент  

    Хорошее кинцо pb.wtf



    07-10-2015 11:01 Вне себя Скачать торрент  

    Отличное кино, сейчас мало снимают хорошего. 9/10pb.wtf



    07-10-2015 16:00 Вне себя Скачать торрент  

    отличный фильм, советую посмотреть! pb.wtf



      Дорогой пользователь! Огромная просьба, поблагодарите релизера, оцените раздачу и оставьте свои комментарий, если Вы скачали Вне себя через торрент бесплатно! Внесите свою лепту в развитие PiratBit!
      Комментировать посты могут только пользователи прошедшие не сложную регистрацию
      Показать сообщения:    

      Вне себя через торрент
      Скачать бесплатно Вне себя
      Вне себя скачать торрент
      Вне себя смотреть онлайн
      Cкачать фильм Вне себя бесплатно
      Вне себя скачать торрент в хорошем качестве
      Вне себя смотреть онлайн бесплатно в хорошем качестве


      Вы не можете начинать темы
      Вы не можете отвечать на сообщения
      Вы не можете редактировать свои сообщения
      Вы не можете удалять свои сообщения
      Вы не можете голосовать в опросах
      Вы не можете прикреплять файлы к сообщениям
      Вы можете скачивать файлы