Ссылка на приватное зеркало нашего сайта всего за 1$. Внимание количество ограничено!!!

2 сезон

iTunes

iTunes

1

iTunes

iTunes

iTunes

WEBRip

iTunes

30
pack

Вам бонус

ВАЖНО

!!Акция!!

Alien_RageХит недели

RePack

Horizon Zero Dawn

ИГРА 18+

pack

RePack

jed

!!Акция!!

Alien_Rage

RePack

fifa19

RePack

Assassins Creed: Odyssey

RePack

NEED FOR SPEED™ PAYBACK

4 сезон

9 сезон

Бесстыжие 9 сезон

Все сериалы

все сериалы на PB.wtf

RePack

FAR CRY 5
  

Вне себя / Self/less (Тарсем Сингх / Tarsem Singh) [2015, фантастика, триллер, боевик, BDRip-AVC от potroks] DUB Лицензия pb.wtf

Вне себя через торрент pb.wtf

Раздают: 1 [ 0 KB/s ]
Размер: 1.46 GB | Добавлен: 4 года 11 мес. назад | Торрент скачан:742 раза
Скачать  

07-10-2015 17:30 Вне себя Скачать торрент  

Вне/себя / Self/less
«У бессмертия есть побочные эффекты»
Год выпуска: 2015
Страна: США / Endgame Entertainment, Ram Bergman Productions
Жанр: фантастика, триллер, боевик
Продолжительность: 01:52:11
Перевод: Дубляж [BD RUS]
Субтитры: английские
Навигация по главам: есть
Режиссер: Тарсем Сингх / Tarsem Singh
В ролях:

Райан Рейнольдс (Young Damian), Бен Кингсли (Damian), Натали Мартинес (Madeline), Мэттью Гуд (Albright), Виктор Гарбер (Martin), Дерек Люк (Anton), Джейни-Линн Кинчен (Anna), Мелора Хардин (Judy), Мишель Докери (Claire), Сэмюэл Пейдж (Carl), Брендан МакКарти (Anton 2), Томас Мерфи (Dr. Jensen)
Описание: Один ученый нашел способ победить смерть с помощью имплантации своего сознания в молодое тело, созданное методом генной инженерии. Операция эта дорогостоящая и проводится подпольно, а поэтому доступна лишь ограниченному кругу лиц. Умирающий пожилой бизнесмен решается на это и получает возможность прожить еще одну жизнь. Однако когда ему приоткрывается тайна происхождения нового тела, за ним начинает охоту секретная организация, которая не остановится ни перед чем, чтобы защитить свои интересы.

Качество: BDRip-AVC
Формат: MKV
Видео кодек: AVC
Аудио кодек: AC3
Видео: AVC, 932x524 (16:9), 1479 kbps, 25 fps, 0,121 bit/pixel
Аудио: AC3 / 5.1 / 48 kHz / 384 kbps / 16 bit

Релиз группы:
Автор рипа: potroks

Код:

General
Unique ID                                : 171360649312860399414327740844678243492 (0x80EADC4EFAB06D15ADF8D19E5C86E4A4)
Complete name                            : N:\Фантастика\Vne.Sebya.2015.RUS.BDRip.x264.-HELLYWOOD.mkv
Format                                   : Matroska
Format version                           : Version 4 / Version 2
File size                                : 1.46 GiB
Duration                                 : 1h 52mn
Overall bit rate                         : 1 865 Kbps
Movie name                               : Self/less (2015) - HELLYWOOD
Encoded date                             : UTC 2015-10-07 17:06:52
Writing application                      : mkvmerge v5.9.0 ('On The Loose') built on Dec 15 2012 16:39:58
Writing library                          : libebml v1.3.0 + libmatroska v1.4.0

Video
ID                                       : 1
Format                                   : AVC
Format/Info                              : Advanced Video Codec
Format profile                           : High@L4.1
Format settings, CABAC                   : Yes
Format settings, ReFrames                : 12 frames
Codec ID                                 : V_MPEG4/ISO/AVC
Duration                                 : 1h 52mn
Bit rate                                 : 1 479 Kbps
Width                                    : 932 pixels
Height                                   : 524 pixels
Display aspect ratio                     : 16:9
Frame rate                               : 25.000 fps
Color space                              : YUV
Chroma subsampling                       : 4:2:0
Bit depth                                : 8 bits
Scan type                                : MBAFF
Bits/(Pixel*Frame)                       : 0.121
Stream size                              : 1.13 GiB (77%)
Title                                    : potroks
Writing library                          : x264 core 148 r2597M e86f3a1
Encoding settings                        : cabac=1 / ref=12 / deblock=1:-3:-3 / analyse=0x3:0x133 / me=umh / subme=11 / psy=1 / psy_rd=1.00:0.00 / mixed_ref=1 / me_range=48 / chroma_me=1 / trellis=2 / 8x8dct=1 / cqm=0 / deadzone=21,11 / fast_pskip=0 / chroma_qp_offset=-2 / threads=10 / lookahead_threads=2 / sliced_threads=0 / nr=0 / decimate=1 / interlaced=tff / bluray_compat=0 / constrained_intra=0 / bframes=13 / b_pyramid=2 / b_adapt=2 / b_bias=0 / direct=3 / weightb=1 / open_gop=0 / weightp=0 / keyint=250 / keyint_min=23 / scenecut=40 / intra_refresh=0 / rc=2pass / mbtree=0 / bitrate=1479 / ratetol=1.0 / qcomp=0.70 / qpmin=0 / qpmax=69 / qpstep=4 / cplxblur=20.0 / qblur=0.5 / ip_ratio=1.40 / pb_ratio=1.30 / aq=1:0.80
Language                                 : English
Default                                  : Yes
Forced                                   : No
Color primaries                          : BT.709-5, BT.1361, IEC 61966-2-4, SMPTE RP177
Transfer characteristics                 : BT.709-5, BT.1361
Matrix coefficients                      : BT.709-5, BT.1361, IEC 61966-2-4 709, SMPTE RP177

Audio
ID                                       : 2
Format                                   : AC-3
Format/Info                              : Audio Coding 3
Mode extension                           : CM (complete main)
Codec ID                                 : A_AC3
Duration                                 : 1h 52mn
Bit rate mode                            : Constant
Bit rate                                 : 384 Kbps
Channel(s)                               : 6 channels
Channel positions                        : Front: L C R, Side: L R, LFE
Sampling rate                            : 48.0 KHz
Bit depth                                : 16 bits
Compression mode                         : Lossy
Stream size                              : 308 MiB (21%)
Title                                    : Dub | DD 5.1 @ 384 kbps - Blu-Ray RUS
Language                                 : Russian
Default                                  : Yes
Forced                                   : No

Text
ID                                       : 3
Format                                   : UTF-8
Codec ID                                 : S_TEXT/UTF8
Codec ID/Info                            : UTF-8 Plain Text
Language                                 : English
Default                                  : No
Forced                                   : No

Menu
00:00:00.000                             : :(01)00:00:00:000
00:06:28.320                             : :(02)00:06:28:320
00:15:50.360                             : :(03)00:15:50:360
00:27:05.160                             : :(04)00:27:05:160
00:34:46.400                             : :(05)00:34:46:400
00:42:07.880                             : :(06)00:42:07:880
00:56:07.840                             : :(07)00:56:07:840
01:04:01.200                             : :(08)01:04:01:200
01:12:03.200                             : :(09)01:12:03:200
01:23:44.000                             : :(10)01:23:44:000
01:28:27.800                             : :(11)01:28:27:800
01:39:28.080                             : :(12)01:39:28:080

pb.wtf



Скачать Вне себя через торрент http://i71.fastpic.ru/big/2015/1007/68/2e5fb3d98018f6f493b674cc598c0d68.png Скачать фильм Вне себя через торрент бесплантно в хорошем качестве Описание: Один ученый нашел способ победить смерть с помощью имплантации своего сознания в молодое тело, созданное методом генной ... 9.2 10 19
Info! Золотая раздача, скачанное не засчитывается.
Торрент: Зарегистрирован [2015-10-07 17:30] · скачан: 742 раз
Статус: √ проверено
Размер: 1.46 GB
Как cкачать? Как скачать Вне себя через торрент | qTorrent

% Раздел Тема Автор DL S | L
Фильмы 2015 [DVDrip, WEB-DLRip, HDrip] [ 2.18 GB ] Вне/себя / Self/less [2015 BDRip-AVC от sokol_ok] [NOR Transfer] DUB sokol_ok Скачать
3 | 0
Фильмы 2015 [DVDrip, WEB-DLRip, HDrip] [ 1.46 GB ] Вне/себя / Self/less [2015 BDRip-AVC от sokol_ok] [NOR Transfer] DUB sokol_ok Скачать
4 | 0
Фильмы (Blu-ray, BD-Remux, HDDVD) [ 32.44 GB ] Вне/себя / Self/less [2015 Blu-Ray Remux 1080p] [NOR Transfer] [] killermax2013 Скачать
1 | 0
Фильмы 2015 [DVDrip, WEB-DLRip, HDrip] [ 2.18 GB ] Вне себя / Self/less [2015 BDRip-AVC] DUB potroks Скачать
1 | 0
Фильмы 2015 [DVDrip, WEB-DLRip, HDrip] [ 1.46 GB ] Вне себя / Self/less [2015 BDRip] [NOR Transfer] [] killermax2013 Скачать
1 | 0

28-11-2019 20:33  

Отключить всю рекламу на сайте

07-10-2015 17:41 Вне себя Скачать торрент  

хороший фильм,спасибоpb.wtf



17-10-2015 21:48 Вне себя Скачать торрент  

очень понравился,спасибо за фильмец!!!!!!pb.wtf



19-10-2015 19:44 Вне себя Скачать торрент  

Шикарный фильм!!! Лучшее что я видела за последние пару лет!!! Качество и сюжетная линия на 5. Автору спасибо!!!pb.wtf



    Дорогой пользователь! Огромная просьба, поблагодарите релизера, оцените раздачу и оставьте свои комментарий, если Вы скачали Вне себя через торрент бесплатно! Внесите свою лепту в развитие PiratBit!
    Комментировать посты могут только пользователи прошедшие не сложную регистрацию
    Показать сообщения:    

    Вне себя через торрент
    Скачать бесплатно Вне себя
    Вне себя скачать торрент
    Вне себя смотреть онлайн
    Cкачать фильм Вне себя бесплатно
    Вне себя скачать торрент в хорошем качестве
    Вне себя смотреть онлайн бесплатно в хорошем качестве


    Вы не можете начинать темы
    Вы не можете отвечать на сообщения
    Вы не можете редактировать свои сообщения
    Вы не можете удалять свои сообщения
    Вы не можете голосовать в опросах
    Вы не можете прикреплять файлы к сообщениям
    Вы можете скачивать файлы