Death Stranding+DLC+АВТОАКТИВАЦИЯ

iTunes

iTunes

iTunes

1

iTunes

iTunes

iTunes

iTunes

iTunes

30
pack

$ от Little Big

ВАЖНО

!!Акция!!

Alien_RageХит недели

RePack

Resident Evil 21

ИГРА 18+

pack

RePack

jed

!!Акция!!

Alien_Rage

RePack

fifa19

RePack

Assassins Creed: Odyssey

RePack

NEED FOR SPEED™ PAYBACK

4 сезон

9 сезон

Бесстыжие 9 сезон

Все сериалы

все сериалы на PB.wtf

RePack

FAR CRY 5
  

Сюрприз / De Surprise (Майк ван Дим) [2015, мелодрама, комедия, WEB-DL 1080p] Дубляж] iTunes pb.wtf

Сюрприз через торрент pb.wtf

Размер: 3.47 GB | Добавлен: 4 года 9 мес. назад | Торрент скачан:99 раз
Скачать  

07-10-2015 18:52 Сюрприз Скачать торрент  

Сюрприз / De Surprise«Пока смерть не разлучит нас»

  • Год выхода: 2015
  • Жанр: мелодрама, комедия

  • Страна: Нидерланды, Бельгия, Германия, Ирландия
  • Продолжительность: 01:41:21
  • Перевод: Дубляж - [Лицензия / iTunes]
  • Режиссер: Майк ван Дим
  • В ролях:

    Йерун ван Конингсбругге (Jacob van Zuylen de With), Джорджина Вербаан (Anne de Koning), Ян Деклер (Cornald Muller), Генри Гудман (Mr. Jones), Анкур Баль (Asif), Навид Чоудри (Moshin), Оливер Гатс (Halim), Ронни Джатти (Khuram), Элизабет Андерсен (Mother), Тамар Баруч (Marissa de la Rue), Михил Бланкваардт (Truckdriver), Пьер Бокма (Security Van Zuylen Foundation)


  • Эксцентричный мультимиллионер подписывает соглашение о «прекращении» своей жизни. Выбирая гроб для похорон, он знакомится с подписавшей аналогичный договор молодой женщиной. Проблемы возникают после того, как они влюбляются друг в друга и пытаются расторгнуть заключенные контракты...

  • Качество: WEB-DL 1080p
  • Формат: MKV
  • Видео кодек: AVC
  • Аудио кодек: AC3
  • Видео: AVC, 1920x804 (2.40:1), 4419 kbps, 24 fps, 0,119 bpp
  • Аудио: русский / AC3 / 5.1 / 48 kHz / 384 kbps / 16 bit |Дубляж, iTunes|
  • Навигация по главам: есть

    Код:

    General
    Unique ID                                : 236914037261117225711849150017609863542 (0xB23BFBDE4B3DC50D9D30675217031176)
    Complete name                            : H:\C1yP6P1ce.2015.D.WEB-DL.1080p.mkv
    Format                                   : Matroska
    Format version                           : Version 4 / Version 2
    File size                                : 3.47 GiB
    Duration                                 : 1h 41mn
    Overall bit rate                         : 4 901 Kbps
    Encoded date                             : UTC 2015-10-07 10:02:49
    Writing application                      : mkvmerge v6.9.1 ('Blue Panther') 64bit built on Apr 18 2014 18:23:38
    Writing library                          : libebml v1.3.0 + libmatroska v1.4.1

    Video
    ID                                       : 1
    Format                                   : AVC
    Format/Info                              : Advanced Video Codec
    Format profile                           : High@L4.0
    Format settings, CABAC                   : Yes
    Format settings, ReFrames                : 5 frames
    Codec ID                                 : V_MPEG4/ISO/AVC
    Duration                                 : 1h 41mn
    Bit rate                                 : 4 419 Kbps
    Width                                    : 1 920 pixels
    Height                                   : 804 pixels
    Display aspect ratio                     : 2.40:1
    Frame rate                               : 24.000 fps
    Color space                              : YUV
    Chroma subsampling                       : 4:2:0
    Bit depth                                : 8 bits
    Scan type                                : Progressive
    Bits/(Pixel*Frame)                       : 0.119
    Stream size                              : 3.13 GiB (90%)
    Language                                 : English
    Default                                  : Yes
    Forced                                   : No
    Color primaries                          : BT.709-5, BT.1361, IEC 61966-2-4, SMPTE RP177
    Transfer characteristics                 : BT.709-5, BT.1361
    Matrix coefficients                      : BT.709-5, BT.1361, IEC 61966-2-4 709, SMPTE RP177

    Audio
    ID                                       : 2
    Format                                   : AC-3
    Format/Info                              : Audio Coding 3
    Mode extension                           : CM (complete main)
    Codec ID                                 : A_AC3
    Duration                                 : 1h 41mn
    Bit rate mode                            : Constant
    Bit rate                                 : 384 Kbps
    Channel(s)                               : 6 channels
    Channel positions                        : Front: L C R, Side: L R, LFE
    Sampling rate                            : 48.0 KHz
    Bit depth                                : 16 bits
    Compression mode                         : Lossy
    Stream size                              : 278 MiB (8%)
    Language                                 : Russian
    Default                                  : Yes
    Forced                                   : No

    Menu
    00:00:00.000                             : en:Глава 1
    00:08:27.000                             : en:Глава 2
    00:13:29.000                             : en:Глава 3
    00:23:17.000                             : en:Глава 4
    00:29:17.000                             : en:Глава 5
    00:39:21.000                             : en:Глава 6
    00:46:45.000                             : en:Глава 7
    00:56:44.000                             : en:Глава 8
    01:06:25.000                             : en:Глава 9
    01:15:33.000                             : en:Глава 10
    01:23:52.000                             : en:Глава 11
    01:29:48.000                             : en:Глава 12

    Скриншоты:


    © Оформление by -Lexx- pb.wtf



  • Скачать Сюрприз через торрент http://pic.kartinco.top/images/6/stazu.jpg Скачать фильм Сюрприз через торрент бесплантно в хорошем качестве qw.png Эксцентричный мультимиллионер подписывает соглашение о «прекращении» своей жизни. Выбирая гроб для похорон, он знакомится с ... 10 10 7
    Торрент: Зарегистрирован [2015-10-07 18:52] · скачан: 99 раз
    Статус: √ проверено
    Размер: 3.47 GB
    Как cкачать? Как скачать Сюрприз через торрент | qTorrent

    % Раздел Тема Автор DL S | L
    Фильмы 2015 [DVDrip, WEB-DLRip, HDrip] [ 1.45 GB ] Сюрприз / De Surprise [2015 HDRip $-DRON-$ Скачать
    1 | 0
    R.G. Resident & PiratVoice - Фильмы, Видео [ 1.46 GB ] Сюрприз / De Surprise [2015 HDRip-AVC многоголосый От R.G.Resident White Smoke Скачать
    1 | 0
    Фильмы (WEB-DL 720p, 1080p) [ 3.08 GB ] Сюрприз / De Surprise [2015 WEB-DL 720p - / ] 10oN Скачать
    1 | 0
    Фильмы 2015 [DVDrip, WEB-DLRip, HDrip] [ 1.46 GB ] Сюрприз / De Surprise [2015 WEB-DLRip] ] -Lexx- Скачать
    1 | 0

    28-11-2019 20:33  

    Отключить всю рекламу на сайте

      Дорогой пользователь! Огромная просьба, поблагодарите релизера, оцените раздачу и оставьте свои комментарий, если Вы скачали Сюрприз через торрент бесплатно! Внесите свою лепту в развитие PiratBit!
      Комментировать посты могут только пользователи прошедшие не сложную регистрацию
      Показать сообщения:    

      Сюрприз через торрент
      Скачать бесплатно Сюрприз
      Сюрприз скачать торрент
      Сюрприз смотреть онлайн
      Cкачать фильм Сюрприз бесплатно
      Сюрприз скачать торрент в хорошем качестве
      Сюрприз смотреть онлайн бесплатно в хорошем качестве


      Вы не можете начинать темы
      Вы не можете отвечать на сообщения
      Вы не можете редактировать свои сообщения
      Вы не можете удалять свои сообщения
      Вы не можете голосовать в опросах
      Вы не можете прикреплять файлы к сообщениям
      Вы можете скачивать файлы