Ссылка на приватное зеркало всего за 1$. Внимание количество ограничено!!!

OK

1+1

iTunes

мы

OK

1

WEB-DLRip

Джокер

Пифагор

Ведьмак / The Witcher сериал

iTunes

ПШазам

ОК

Оно 2

iTunes

30
pack

Вам бонус

ВАЖНО

!!Акция!!

Alien_RageХит недели

RePack

Resident Evil 21

ИГРА 18+

pack

RePack

jed

RePack

fifa19

RePack

Assassins Creed: Odyssey

RePack

NEED FOR SPEED™ PAYBACK

4 сезон

9 сезон

Бесстыжие 9 сезон

Все сериалы

все сериалы на PB.wtf

RePack

FAR CRY 5
  

Сюрприз / De Surprise (Майк ван Дим) [2015, мелодрама, комедия, WEB-DLRip] Дубляж] iTunes pb.wtf

Сюрприз через торрент pb.wtf

Размер: 1.46 GB | Добавлен: 4 года 3 мес. назад | Торрент скачан:568 раз
Скачать  

07-10-2015 19:42 Сюрприз Скачать торрент  

Сюрприз / De Surprise«Пока смерть не разлучит нас»

  • Год выхода: 2015
  • Жанр: мелодрама, комедия

  • Страна: Нидерланды, Бельгия, Германия, Ирландия
  • Продолжительность: 01:41:21
  • Перевод: Дубляж - [Лицензия / iTunes]
  • Режиссер: Майк ван Дим
  • В ролях:

    Йерун ван Конингсбругге (Jacob van Zuylen de With), Джорджина Вербаан (Anne de Koning), Ян Деклер (Cornald Muller), Генри Гудман (Mr. Jones), Анкур Баль (Asif), Навид Чоудри (Moshin), Оливер Гатс (Halim), Ронни Джатти (Khuram), Элизабет Андерсен (Mother), Тамар Баруч (Marissa de la Rue), Михил Бланкваардт (Truckdriver), Пьер Бокма (Security Van Zuylen Foundation)


  • Эксцентричный мультимиллионер подписывает соглашение о «прекращении» своей жизни. Выбирая гроб для похорон, он знакомится с подписавшей аналогичный договор молодой женщиной. Проблемы возникают после того, как они влюбляются друг в друга и пытаются расторгнуть заключенные контракты...

  • Качество: WEB-DLRip
  • Формат: AVI
  • Видео кодек: XviD
  • Аудио кодек: AC3
  • Видео: XviD, 720x304 (2.35:1), 1669 kbps, 24 fps, 0,318 bpp
  • Аудио: русский / AC3 / 5.1 / 48 kHz / 384 kbps / 16 bit |Дубляж, iTunes|

    Код:

    General
    Complete name                            : H:\C1yP6P1ce.2015.D.WEB-DLRip.1.46GB.avi
    Format                                   : AVI
    Format/Info                              : Audio Video Interleave
    File size                                : 1.46 GiB
    Duration                                 : 1h 41mn
    Overall bit rate                         : 2 063 Kbps
    Writing application                      : VirtualDubMod 1.5.10.3 | www.virtualdub-fr.org || (build 2550/release)
    Writing library                          : VirtualDubMod build 2550/release

    Video
    ID                                       : 0
    Format                                   : MPEG-4 Visual
    Format profile                           : Advanced Simple@L5
    Format settings, BVOP                    : 2
    Format settings, QPel                    : No
    Format settings, GMC                     : No warppoints
    Format settings, Matrix                  : Default (MPEG)
    Codec ID                                 : XVID
    Codec ID/Hint                            : XviD
    Duration                                 : 1h 41mn
    Bit rate                                 : 1 670 Kbps
    Width                                    : 720 pixels
    Height                                   : 304 pixels
    Display aspect ratio                     : 2.35:1
    Frame rate                               : 24.000 fps
    Color space                              : YUV
    Chroma subsampling                       : 4:2:0
    Bit depth                                : 8 bits
    Scan type                                : Progressive
    Compression mode                         : Lossy
    Bits/(Pixel*Frame)                       : 0.318
    Stream size                              : 1.18 GiB (81%)
    Writing library                          : XviD 1.2.1 (UTC 2008-12-04)

    Audio
    ID                                       : 1
    Format                                   : AC-3
    Format/Info                              : Audio Coding 3
    Mode extension                           : CM (complete main)
    Codec ID                                 : 2000
    Duration                                 : 1h 41mn
    Bit rate mode                            : Constant
    Bit rate                                 : 384 Kbps
    Channel(s)                               : 6 channels
    Channel positions                        : Front: L C R, Side: L R, LFE
    Sampling rate                            : 48.0 KHz
    Bit depth                                : 16 bits
    Compression mode                         : Lossy
    Stream size                              : 278 MiB (19%)
    Alignment                                : Split accross interleaves
    Interleave, duration                     : 42 ms (1.00 video frame)
    Interleave, preload duration             : 500 ms

    Скриншоты:


    © Оформление by -Lexx- pb.wtf



  • Скачать Сюрприз через торрент http://pic.kartinco.top/images/6/stazu.jpg Скачать фильм Сюрприз через торрент бесплантно в хорошем качестве qw.png Эксцентричный мультимиллионер подписывает соглашение о «прекращении» своей жизни. Выбирая гроб для похорон, он знакомится с ... 9.4 10 17
    Info! Золотая раздача, скачанное не засчитывается.
    Торрент: Зарегистрирован [2015-10-07 19:42] · скачан: 568 раз
    Статус: √ проверено
    Размер: 1.46 GB
    Как cкачать? Как скачать Сюрприз через торрент | qTorrent

    % Раздел Тема Автор DL S | L
    Фильмы 2015 [DVDrip, WEB-DLRip, HDrip] [ 1.45 GB ] Сюрприз / De Surprise [2015 HDRip $-DRON-$ Скачать
    1 | 0
    R.G. Resident & PiratVoice - Фильмы, Видео [ 1.46 GB ] Сюрприз / De Surprise [2015 HDRip-AVC многоголосый От R.G.Resident White Smoke Скачать
    1 | 0
    Фильмы (WEB-DL 720p, 1080p) [ 3.08 GB ] Сюрприз / De Surprise [2015 WEB-DL 720p - / ] 10oN Скачать
    1 | 0
    Фильмы (WEB-DL 720p, 1080p) [ 3.47 GB ] Сюрприз / De Surprise [2015 WEB-DL 1080p] ] -Lexx- Скачать
    1 | 0

    28-11-2019 20:33  

    Отключить всю рекламу на сайте

    07-10-2015 20:53 Сюрприз Скачать торрент  

    32 мин просмотрено, а сюжет уже понятен(((pb.wtf



    09-10-2015 00:15 Сюрприз Скачать торрент  

    rofl сюжет ему понятен
    Чувак в мире есть всего 7 сюжетов.
    Только лишь куча вариаций их неизменна )pb.wtf



    11-10-2015 20:42 Сюрприз Скачать торрент  

    А мне понравилось! Креативно! :pleasantry:pb.wtf



      Дорогой пользователь! Огромная просьба, поблагодарите релизера, оцените раздачу и оставьте свои комментарий, если Вы скачали Сюрприз через торрент бесплатно! Внесите свою лепту в развитие PiratBit!
      Комментировать посты могут только пользователи прошедшие не сложную регистрацию
      Показать сообщения:    

      Сюрприз через торрент
      Скачать бесплатно Сюрприз
      Сюрприз скачать торрент
      Сюрприз смотреть онлайн
      Cкачать фильм Сюрприз бесплатно
      Сюрприз скачать торрент в хорошем качестве
      Сюрприз смотреть онлайн бесплатно в хорошем качестве


      Вы не можете начинать темы
      Вы не можете отвечать на сообщения
      Вы не можете редактировать свои сообщения
      Вы не можете удалять свои сообщения
      Вы не можете голосовать в опросах
      Вы не можете прикреплять файлы к сообщениям
      Вы можете скачивать файлы