Ссылка на приватное зеркало всего за 1$. Внимание количество ограничено!!!

iTunes

iTunes

iTunes

1

iTunes

iTunes

iTunes

iTunes

iTunes

30
pack

$ от Little Big

ВАЖНО

!!Акция!!

Alien_RageХит недели

RePack

Resident Evil 21

ИГРА 18+

pack

RePack

jed

!!Акция!!

Alien_Rage

RePack

fifa19

RePack

Assassins Creed: Odyssey

RePack

NEED FOR SPEED™ PAYBACK

4 сезон

9 сезон

Бесстыжие 9 сезон

Все сериалы

все сериалы на PB.wtf

RePack

FAR CRY 5
  

Развод по собственному желанию (Илья Северов) [2015, комедия, мелодрама, WEB-DLRip] pb.wtf

Развод по собственному желанию через торрент pb.wtf

Размер: 1.37 GB | Добавлен: 4 года 7 мес. назад | Торрент скачан:604 раза
Скачать  

08-10-2015 05:41 Развод по собственному желанию Скачать торрент  


Развод по собственному желанию



Год выпуска: 2015
Страны: Россия
Жанры: комедия, мелодрама
Продолжительность: 01:25:17
Перевод: Оригинал

Режиссер: Илья Северов
Сценарий: Илья Северов
В ролях:
Константин Юшкевич (Сергей), Наталья Суркова (Елена), Вячеслав Коробицин (Антон), Юрий Гальцев (Геннадий), Наталья Ткаченко (Екатерина)


Тренер, велогонщик в прошлом, Сергей и основательница сети книжных магазинов Елена уже двадцать лет вместе. Из неожиданно разгоревшейся супружеской ссоры возникает серьезный скандал, грозящий перерасти в развод.Сиюминутное решение Сергея — начать все заново. Он уходит из дома и не подозревает, что жизнь может кардинально поменяться всего за несколько часов. Круговерть невероятных приключений, в которые втягивает лучший друг, и безумных ситуаций с близкими проверят на прочность крепость семейных уз Сергея и Елены.
Бюджет: $1 200 000
Премьера (РФ): 10 сентября 2015

Качество: WEB-DLRip
Формат: AVI
Видео кодек: XviD
Аудио кодек: AC3
Видео: 720x384 (1.85:1), 25.000 fps, XviD, 1 811 Kbps
Аудио: AC3, 384 Kbps, 48.0 KHz, 2 ch
General
Complete name : Pa3B0d.po.C0BmeCH0my.Zhelaniu.2015.O.WEB-DLRip.1400MB.avi
Format : AVI
Format/Info : Audio Video Interleave
File size : 1.37 GiB
Duration : 1h 25mn
Overall bit rate : 2 295 Kbps
Writing application : VirtualDubMod 1.5.10.2 (build 2540/release)
Writing library : VirtualDubMod build 2540/release

Video
ID : 0
Format : MPEG-4 Visual
Format profile : Advanced Simple@L5
Format settings, BVOP : 2
Format settings, QPel : No
Format settings, GMC : No warppoints
Format settings, Matrix : Default (MPEG)
Codec ID : XVID
Codec ID/Hint : XviD
Duration : 1h 25mn
Bit rate : 1 811 Kbps
Width : 720 pixels
Height : 384 pixels
Display aspect ratio : 1.85:1
Frame rate : 25.000 fps
Color space : YUV
Chroma subsampling : 4:2:0
Bit depth : 8 bits
Scan type : Progressive
Compression mode : Lossy
Bits/(Pixel*Frame) : 0.262
Stream size : 1.08 GiB (79%)
Writing library : XviD 1.2.1 (UTC 2008-12-04)

Audio
ID : 1
Format : AC-3
Format/Info : Audio Coding 3
Mode extension : CM (complete main)
Format settings, Endianness : Big
Codec ID : 2000
Duration : 1h 25mn
Bit rate mode : Constant
Bit rate : 384 Kbps
Channel(s) : 2 channels
Channel positions : Front: L R
Sampling rate : 48.0 KHz
Bit depth : 16 bits
Compression mode : Lossy
Stream size : 234 MiB (17%)
Alignment : Split accross interleaves
pb.wtf



Скачать Развод по собственному желанию через торрент http://i68.fastpic.ru/big/2015/1008/97/45e195b2e9138d94409c76eb2ec1b497.jpg Скачать фильм Развод по собственному желанию через торрент бесплантно в хорошем качестве В ролях: Константин Юшкевич (Сергей), Наталья Суркова (Елена), Вячеслав Коробицин (Антон), Юрий Гальцев (Геннадий), Наталья Ткаченко ... 8.8 10 17
Торрент: Зарегистрирован [2015-10-08 05:41] · скачан: 604 раз
Статус: √ проверено
Размер: 1.37 GB
Как cкачать? Как скачать Развод по собственному желанию через торрент | qTorrent

% Раздел Тема Автор DL S | L
Наши фильмы (HD, WEB-DL 720p, 1080p) [ 1.76 GB ] Развод по собственному желанию [2015 WEB - DLRip 720p] кэп Скачать
1 | 0

28-11-2019 20:33  

Отключить всю рекламу на сайте

    Дорогой пользователь! Огромная просьба, поблагодарите релизера, оцените раздачу и оставьте свои комментарий, если Вы скачали Развод по собственному желанию через торрент бесплатно! Внесите свою лепту в развитие PiratBit!
    Комментировать посты могут только пользователи прошедшие не сложную регистрацию
    Показать сообщения:    

    Развод по собственному желанию через торрент
    Скачать бесплатно Развод по собственному желанию
    Развод по собственному желанию скачать торрент
    Развод по собственному желанию смотреть онлайн
    Cкачать фильм Развод по собственному желанию бесплатно
    Развод по собственному желанию скачать торрент в хорошем качестве
    Развод по собственному желанию смотреть онлайн бесплатно в хорошем качестве


    Вы не можете начинать темы
    Вы не можете отвечать на сообщения
    Вы не можете редактировать свои сообщения
    Вы не можете удалять свои сообщения
    Вы не можете голосовать в опросах
    Вы не можете прикреплять файлы к сообщениям
    Вы можете скачивать файлы