Ссылка на приватное зеркало всего за 1$. Внимание количество ограничено!!!

iTunes

iTunes

iTunes

1

iTunes

iTunes

iTunes

iTunes

iTunes

30
pack

$ от Little Big

ВАЖНО

!!Акция!!

Alien_RageХит недели

RePack

Resident Evil 21

ИГРА 18+

pack

RePack

jed

!!Акция!!

Alien_Rage

RePack

fifa19

RePack

Assassins Creed: Odyssey

RePack

NEED FOR SPEED™ PAYBACK

4 сезон

9 сезон

Бесстыжие 9 сезон

Все сериалы

все сериалы на PB.wtf

RePack

FAR CRY 5
  

Кутис / Cooties (Джонатан Милотт, Кэри Мернион / Jonathan Milott, Cary Murnion) [2014, ужасы, комедия, WEB-DL 720р] (Dub) [iTunes] pb.wtf

Кутис через торрент pb.wtf

Размер: 2.98 GB | Добавлен: 4 года 9 мес. назад | Торрент скачан:353 раза
Скачать  

08-10-2015 05:58 Кутис Скачать торрент  


Кутис
Cooties

«Детей с рук не кормить!»


Год выпуска: 2014
Страны: США , Россия
Жанры: ужасы, комедия
Продолжительность: 01:28:01
Перевод: Профессиональный (дублированный) [iTunes]

Режиссер: Джонатан Милотт, Кэри Мернион / Jonathan Milott, Cary Murnion
Сценарий: Ли Уоннелл, Иэн Бреннан, Джош С. Уоллер / Leigh Whannell, Ian Brennan, Josh C. Waller
Субтитры: English (UTF-8)
В ролях:
Элайджа Вуд / Elijah Wood (Clint), Рэйн Уилсон / Rainn Wilson (Wade), Элисон Пилл / Alison Pill (Lucy), Джек МакБрайер / Jack McBrayer (Tracy), Ли Уоннелл / Leigh Whannell (Doug)


В одной частной закрытой школе появился страшный вирус! Маленькие хорошенькие детки в одночасье превратились в адских зомби, которые хотят сожрать своих любимых учителей и одноклассников. Война начинается! И не на жизнь, а на смерть.
Премьера (мир): 18 января 2014
Премьера (РФ): 18 сентября 2015

Качество: WEBDL 720p
Формат: MKV
Видео кодек: AVC
Аудио кодек: AC3
Видео: 1280x536 (2.40:1), 23.976 fps, AVC, 3 975 Kbps
Аудио #1: AC3, 384 Kbps, 48.0 KHz, 6 ch - Russian
Аудио #2: AC3, 384 Kbps, 48.0 KHz, 6 ch - English
General
Unique ID : 250732840144556551257790898651318215136 (0xBCA16373EBCEA7F89979CA956EEC61E0)
Complete name : K_u_T_1_C.2O15.D.WEB-DL.720p.mkv
Format : Matroska
Format version : Version 4 / Version 2
File size : 2.98 GiB
Duration : 1h 28mn
Overall bit rate : 4 840 Kbps
Encoded date : UTC 2015-10-07 23:58:21
Writing application : mkvmerge v6.9.1 ('Blue Panther') 64bit built on Apr 18 2014 18:23:38
Writing library : libebml v1.3.0 + libmatroska v1.4.1

Video
ID : 1
Format : AVC
Format/Info : Advanced Video Codec
Format profile : Main@L3.1
Format settings, CABAC : No
Format settings, ReFrames : 2 frames
Codec ID : V_MPEG4/ISO/AVC
Duration : 1h 28mn
Bit rate : 3 975 Kbps
Width : 1 280 pixels
Height : 536 pixels
Display aspect ratio : 2.40:1
Frame rate mode : Constant
Frame rate : 23.976 fps
Color space : YUV
Chroma subsampling : 4:2:0
Bit depth : 8 bits
Scan type : Progressive
Bits/(Pixel*Frame) : 0.242
Stream size : 2.44 GiB (82%)
Language : English
Default : Yes
Forced : No
Color primaries : BT.709
Transfer characteristics : BT.709
Matrix coefficients : BT.709

Audio #1
ID : 2
Format : AC-3
Format/Info : Audio Coding 3
Mode extension : CM (complete main)
Format settings, Endianness : Big
Codec ID : A_AC3
Duration : 1h 28mn
Bit rate mode : Constant
Bit rate : 384 Kbps
Channel(s) : 6 channels
Channel positions : Front: L C R, Side: L R, LFE
Sampling rate : 48.0 KHz
Bit depth : 16 bits
Compression mode : Lossy
Stream size : 242 MiB (8%)
Language : Russian
Default : Yes
Forced : Yes

Audio #2
ID : 3
Format : AC-3
Format/Info : Audio Coding 3
Mode extension : CM (complete main)
Format settings, Endianness : Big
Codec ID : A_AC3
Duration : 1h 28mn
Bit rate mode : Constant
Bit rate : 384 Kbps
Channel(s) : 6 channels
Channel positions : Front: L C R, Side: L R, LFE
Sampling rate : 48.0 KHz
Bit depth : 16 bits
Compression mode : Lossy
Stream size : 242 MiB (8%)
Language : English
Default : No
Forced : No

Text
ID : 4
Format : UTF-8
Codec ID : S_TEXT/UTF8
Codec ID/Info : UTF-8 Plain Text
Language : English
Default : No
Forced : No
pb.wtf



Скачать Кутис через торрент http://i71.fastpic.ru/big/2015/1008/41/a804fd9b000e32b265db677079550441.jpg Скачать фильм Кутис через торрент бесплантно в хорошем качестве В ролях: Элайджа Вуд / Elijah Wood (Clint), Рэйн Уилсон / Rainn Wilson (Wade), Элисон Пилл / Alison Pill (Lucy), Джек МакБрайер / Jack ... 8.6 10 17
Info! Золотая раздача, скачанное не засчитывается.
Торрент: Зарегистрирован [2015-10-08 05:58] · скачан: 353 раз
Статус: √ проверено
Размер: 2.98 GB
Как cкачать? Как скачать Кутис через торрент | qTorrent

% Раздел Тема Автор DL S | L
Фильмы 2014 [DVDrip, WEB-DLRip, HDrip] [ 1.47 GB ] Кутис / Cooties [2014 HDRip ""] coc900 Скачать
1 | 0

28-11-2019 20:33  

Отключить всю рекламу на сайте

13-10-2015 02:39 Кутис Скачать торрент  

Хератень еще та! А Элайджа Вуд снимается только в первосортном дерьме
Автору раздачи за труды спасибо!pb.wtf



    Дорогой пользователь! Огромная просьба, поблагодарите релизера, оцените раздачу и оставьте свои комментарий, если Вы скачали Кутис через торрент бесплатно! Внесите свою лепту в развитие PiratBit!
    Комментировать посты могут только пользователи прошедшие не сложную регистрацию
    Показать сообщения:    

    Кутис через торрент
    Скачать бесплатно Кутис
    Кутис скачать торрент
    Кутис смотреть онлайн
    Cкачать фильм Кутис бесплатно
    Кутис скачать торрент в хорошем качестве
    Кутис смотреть онлайн бесплатно в хорошем качестве


    Вы не можете начинать темы
    Вы не можете отвечать на сообщения
    Вы не можете редактировать свои сообщения
    Вы не можете удалять свои сообщения
    Вы не можете голосовать в опросах
    Вы не можете прикреплять файлы к сообщениям
    Вы можете скачивать файлы