новый адрес
Мега распродажа FORZA HORIZON 4 ULTIMATE+ВСЕ DLC+ОНЛАЙН всего за 499р. 349 руб. (супер цена). Внимание количество ограничено!!!

iTunes

1+1

iTunes

мы

iTunes

1

iTunes

Чернобыль

iTunes

Ральф против интернета

Лицензия

ПШазам

Лицензия

Оно 2

Лицензия

30
pack

ВАЖНО

!!Акция!!

Alien_RageХит недели

RePack

Resident Evil 21

ИГРА 18+

pack

RePack

jed

!!Акция!!

Alien_Rage

RePack

fifa19

RePack

Assassins Creed: Odyssey

RePack

NEED FOR SPEED™ PAYBACK

3 сезон

9 сезон

Бесстыжие 9 сезон

Все сериалы

все сериалы на PB.wtf

RePack

FAR CRY 5
Ребята, катастрофически не хватает 1900р. для оплаты серверов за Октябрь (всвязи с блокировками трафик упал в 3 раза), 1-2р., выручайте.
  

Каждый третий (Эдуард Хачатуров) [1980, СССР, военный, SATRip от AVP Studio] pb.wtf

Каждый третий через торрент pb.wtf

Размер: 745 MB | Добавлен: 4 года 1 мес. назад | Торрент скачан:15 раз
Скачать  

08-10-2015 08:01 Каждый третий Скачать торрент  

Каждый третий
Страна: СССР
Производство: Беларусьфильм, Узбекфильм

Жанр: военный
Год выпуска: 1980
Продолжительность: 01:13:59

Перевод: Не требуется
Cубтитры: нет
Оригинальная аудиодорожка: русский

Режиссер: Эдуард Хачатуров

В ролях:
Назим Туляходжаев, Марина Левтова, Альгирдас Паулавичюс, Геннадий Фролов, Владимир Марков, Михаил Глузский, Вера Кузнецова, Иван Рыжов, Дагун Омаев, Нина Розанцева, Геннадий Нилов...
Полный список актёров

Описание:
Великая Отечественная война... Одна из ее бесчисленных трудных дорог привела молодого солдата-узбека Рахима Замонбекова в отряд белорусских партизан. А до этого — тяжелый бой артиллерийского полка с превосходящими силами противника геройская гибель товарищей, трудный путь по вражеским тылам. От, казалось бы, неминуемой смерти спасает Рахима ценой собственной жизни старый крестьянин-белорус. В этих испытаниях мужает сердце молодого воина, одного из защитников Родины.

Источник: DVB
Качество видео: SATRip
Формат видео: AVI

Видео: 704x336 (2,095:1), 25 fps, XviD ~ 1207 kbps avg, 0.204 bit/pixel
Аудио: 48 kHz, Dolby Digital AC3 2.0, 192 kbps

Раздача от:
Общее
Полное имя : Kazhdyy.tretiy.1980.SATRip_[New-team]_by_AVP_Studio.avi
Формат : AVI
Формат/Информация : Audio Video Interleave
Размер файла : 745 Мбайт
Продолжительность : 1 ч. 13 м.
Общий поток : 1409 Кбит/сек
Программа кодирования : VirtualDubMod 1.5.10.3 | www.virtualdub-fr.org || (build 2550/release)
Библиотека кодирования : VirtualDubMod build 2550/release

Видео
Идентификатор : 0
Формат : MPEG-4 Visual
Профиль формата : Advanced Simple@L5
Параметр BVOP формата : 1
Параметр QPel формата : Нет
Параметр GMC формата : Без точки перехода
Параметр матрицы формата : Выборочная
Идентификатор кодека : XVID
Идентификатор кодека/Подсказка : XviD
Продолжительность : 1 ч. 13 м.
Битрейт : 1207 Кбит/сек
Ширина : 704 пикселя
Высота : 336 пикселей
Соотношение сторон : 2,095
Частота кадров : 25,000 кадров/сек
Цветовое пространство : YUV
Субдискретизация насыщенности : 4:2:0
Битовая глубина : 8 бит
Тип развёртки : Прогрессивная
Метод сжатия : С потерями
Бит/(Пиксели*Кадры) : 0.204
Размер потока : 639 Мбайт (86%)
Библиотека кодирования : XviD 73

Аудио
Идентификатор : 1
Формат : AC-3
Формат/Информация : Audio Coding 3
Расширение режима : CM (complete main)
Параметр Endianness формата : Big
Идентификатор кодека : 2000
Продолжительность : 1 ч. 13 м.
Вид битрейта : Постоянный
Битрейт : 192 Кбит/сек
Каналы : 2 канала
Расположение каналов : Front: L R
Частота : 48,0 КГц
Метод сжатия : С потерями
Размер потока : 102 Мбайт (14%)
Выравнивание : Разделение по промежуткам
Продолжительность промежутка : 40 мс. (1,00 видеокадр)
Время предзагрузки промежутка : 500 мс
pb.wtf



Скачать Каждый третий через торрент http://i072.radikal.ru/1510/fb/9d95f95021ab.png Скачать фильм Каждый третий через торрент бесплантно в хорошем качестве Описание:Великая Отечественная война... Одна из ее бесчисленных трудных дорог привела молодого солдата-узбека Рахима Замонбекова в отряд ... 10 10 2
Торрент: Зарегистрирован [2015-10-08 08:01] · скачан: 15 раз
Статус: √ проверено
Размер: 745 MB
Как cкачать? Как скачать Каждый третий через торрент | qTorrent

% Раздел Тема Автор DL S | L
Кино СССР [ 744 MB ] Каждый третий [1980 СССР военный SATRip-AVC от AVP Studio] AVP Studio Скачать
1 | 0


>> Регистрируемся здесь <<






Отзывы и комментарии о схеме читаем и пишем здесь: ---> Отзывы и комментарии о схеме

Новые благодарочки в телеграм довольных пользователей:
скриншот   скриншот   скриншот   скриншот   скриншот
    Дорогой пользователь! Огромная просьба, поблагодарите релизера, оцените раздачу и оставьте свои комментарий, если Вы скачали Каждый третий через торрент бесплатно! Внесите свою лепту в развитие PiratBit!
    Комментировать посты могут только пользователи прошедшие не сложную регистрацию
    Показать сообщения:    

    Каждый третий через торрент
    Скачать бесплатно Каждый третий
    Каждый третий скачать торрент
    Каждый третий смотреть онлайн
    Cкачать фильм Каждый третий бесплатно
    Каждый третий скачать торрент в хорошем качестве
    Каждый третий смотреть онлайн бесплатно в хорошем качестве


    Вы не можете начинать темы
    Вы не можете отвечать на сообщения
    Вы не можете редактировать свои сообщения
    Вы не можете удалять свои сообщения
    Вы не можете голосовать в опросах
    Вы не можете прикреплять файлы к сообщениям
    Вы можете скачивать файлы