Ссылка на приватное зеркало нашего сайта всего за 1$. Внимание количество ограничено!!!

2 сезон

iTunes

1 сезон

1

iTunes

iTunes

iTunes

1 сезон

RePack

30

ИГРА 18+

pack

ВАЖНО

!!Акция!!

Alien_RageХит недели

RePack

MK11
pack

Забери бонус

RePack

jed

!!Акция!!

Alien_Rage

RePack

fifa19

RePack

Assassins Creed: Odyssey

RePack

NEED FOR SPEED™ PAYBACK

4 сезон

9 сезон

Бесстыжие 9 сезон

Все сериалы

все сериалы на PB.wtf

RePack

FAR CRY 5
  

Дикая / Wild (Жан-Марк Валле / Jean-Marc Vallée) [2014, драма, приключения, биография, BDRip 720p] DUB [Лицензия] pb.wtf

Дикая через торрент pb.wtf

Размер: 6.78 GB | Добавлен: 5 лет назад | Торрент скачан:121 раз
Скачать  

08-10-2015 11:12 Дикая Скачать торрент  

Дикая / Wild
Год выпуска: 2014
Страна: США / Pacific Standard, Fox Searchlight Pictures
Жанр: драма, приключения, биография, история
Продолжительность: 01:55:36
Перевод: Дубляж [BD EUR]
Субтитры: Русские (Full х2), Украинские (Full), Английские (Full х2, SDH х2, SDH-Colored)
Навигация по главам: есть
Режиссер: Жан-Марк Валле / Jean-Marc Vallée
В ролях:

Риз Уизерспун (Cheryl), Лора Дерн (Bobbi), Томас Садоски (Paul), Кин МакРей (Leif), Михил Хаушман (Jonathan), У. Эрл Браун (Frank), Габи Хоффманн (Aimee), Кевин О. Ранкин (Greg), Брайан Ван Холт (Ranger), Клифф Де Янг (Ed), Мо (Jimmy Carter), Уилл Кадди (Josh)
Описание: В центре сюжета Шерил Стрэйд, раздавленная неудавшимся браком и смертью матери и потерявшая всякую надежду на счастье женщина, отправляется в пешее странствие по территории Pacific Crest Trail - маршруту по наиболее высоким участкам хребта Сьерра-Невада и Каскадных гор. Испытания, выпавшие в этом опасном одиночном путешествии на долю героини, неминуемо исцеляют ее от душевных страданий, но процесс этот будет отнюдь не безболезненным.

Качество: BDRip 720p
Формат: MKV
Видео кодек: AVC
Аудио кодек: AC3
Видео: AVC, 1280x536 (2.40:1), 6480 kbps, 23,976 fps, 0,394 bit/pixel
Аудио №1: AC3 / 5.1 / 48 kHz / 640 kbps / 16 bit | DUB, Blu-ray EUR
Аудио №2: AC3 / 5.1 / 48 kHz / 640 kbps / 16 bit | UKR, MVO, Цікава ідея
Аудио №3: AC3 / 5.1 / 48 kHz / 640 kbps / 16 bit | ENG

Релиз группы:
Автор рипа: serokuz74

Код:

General
Unique ID : 198981451231809528299172310244529026014 (0x95B26EFBDACA9BDA86E75078B11C33DE)
Complete name : D:Dikaja.2014.BDRip.720p.TRIPLE.-HELLYWOOD.mkv
Format : Matroska
Format version : Version 4 / Version 2
File size : 6.78 GiB
Duration : 1h 55mn
Overall bit rate : 8 395 Kbps
Movie name : Wild (2014) - http://hellywood.ru/
Encoded date : UTC 2015-05-23 12:30:44
Writing application : mkvmerge v6.9.1 ('Blue Panther') 32bit built on Apr 18 2014 18:15:44
Writing library : libebml v1.3.0 + libmatroska v1.4.1

Video
ID : 1
Format : AVC
Format/Info : Advanced Video Codec
Format profile : High@L4.1
Format settings, CABAC : Yes
Format settings, ReFrames : 12 frames
Codec ID : V_MPEG4/ISO/AVC
Duration : 1h 55mn
Bit rate : 6 480 Kbps
Width : 1 280 pixels
Height : 536 pixels
Display aspect ratio : 2.40:1
Frame rate : 23.976 fps
Color space : YUV
Chroma subsampling : 4:2:0
Bit depth : 8 bits
Scan type : Progressive
Bits/(Pixel*Frame) : 0.394
Stream size : 5.09 GiB (75%)
Title : serokuz74
Writing library : x264 core 146 r2538kMod 121396c
Encoding settings : cabac=1 / ref=12 / deblock=1:-3:-3 / analyse=0x3:0x133 / me=tesa / subme=11 / psy=1 / fade_compensate=0.00 / psy_rd=1.05:0.05 / mixed_ref=1 / me_range=32 / chroma_me=1 / trellis=2 / 8x8dct=1 / cqm=0 / deadzone=21,11 / fast_pskip=0 / chroma_qp_offset=-3 / threads=12 / lookahead_threads=2 / sliced_threads=0 / nr=0 / decimate=0 / interlaced=0 / bluray_compat=0 / constrained_intra=0 / fgo=0 / bframes=11 / b_pyramid=2 / b_adapt=2 / b_bias=0 / direct=3 / weightb=1 / open_gop=0 / weightp=2 / keyint=250 / keyint_min=23 / scenecut=40 / intra_refresh=0 / rc_lookahead=60 / rc=2pass / mbtree=0 / bitrate=6480 / ratetol=1.0 / qcomp=0.70 / qpmin=0 / qpmax=69 / qpstep=4 / cplxblur=20.0 / qblur=0.5 / vbv_maxrate=50000 / vbv_bufsize=62500 / nal_hrd=none / filler=0 / ip_ratio=1.30 / pb_ratio=1.20 / aq=1:0.80
Language : English
Default : Yes
Forced : No
Matrix coefficients : BT.709-5, BT.1361, IEC 61966-2-4 709, SMPTE RP177

Audio #1
ID : 2
Format : AC-3
Format/Info : Audio Coding 3
Mode extension : CM (complete main)
Format settings, Endianness : Big
Codec ID : A_AC3
Duration : 1h 55mn
Bit rate mode : Constant
Bit rate : 640 Kbps
Channel(s) : 6 channels
Channel positions : Front: L C R, Side: L R, LFE
Sampling rate : 48.0 KHz
Bit depth : 16 bits
Compression mode : Lossy
Stream size : 529 MiB (8%)
Title : AC3 5.1 @ 640 kbps - DUB, Blu-ray EUR
Language : Russian
Default : Yes
Forced : No

Audio #2
ID : 3
Format : AC-3
Format/Info : Audio Coding 3
Mode extension : CM (complete main)
Format settings, Endianness : Big
Codec ID : A_AC3
Duration : 1h 55mn
Bit rate mode : Constant
Bit rate : 640 Kbps
Channel(s) : 6 channels
Channel positions : Front: L C R, Side: L R, LFE
Sampling rate : 48.0 KHz
Bit depth : 16 bits
Compression mode : Lossy
Stream size : 529 MiB (8%)
Title : AC3 5.1 @ 640 kbps - МVO, «Цікава ідея»
Language : Ukrainian
Default : No
Forced : No

Audio #3
ID : 4
Format : AC-3
Format/Info : Audio Coding 3
Mode extension : CM (complete main)
Format settings, Endianness : Big
Codec ID : A_AC3
Duration : 1h 55mn
Bit rate mode : Constant
Bit rate : 640 Kbps
Channel(s) : 6 channels
Channel positions : Front: L C R, Side: L R, LFE
Sampling rate : 48.0 KHz
Bit depth : 16 bits
Compression mode : Lossy
Stream size : 529 MiB (8%)
Title : AC3 5.1 @ 640 kbps - Original
Language : English
Default : No
Forced : No

Text #1
ID : 5
Format : UTF-8
Codec ID : S_TEXT/UTF8
Codec ID/Info : UTF-8 Plain Text
Title : Full, Blu-ray EUR
Language : Russian
Default : No
Forced : No

Text #2
ID : 6
Format : UTF-8
Codec ID : S_TEXT/UTF8
Codec ID/Info : UTF-8 Plain Text
Title : Full, Platonych
Language : Russian
Default : No
Forced : No

Text #3
ID : 7
Format : UTF-8
Codec ID : S_TEXT/UTF8
Codec ID/Info : UTF-8 Plain Text
Title : Full, Blu-ray EUR
Language : Ukrainian
Default : No
Forced : No

Text #4
ID : 8
Format : UTF-8
Codec ID : S_TEXT/UTF8
Codec ID/Info : UTF-8 Plain Text
Title : Full
Language : English
Default : No
Forced : No

Text #5
ID : 9
Format : UTF-8
Codec ID : S_TEXT/UTF8
Codec ID/Info : UTF-8 Plain Text
Title : Full, v2
Language : English
Default : No
Forced : No

Text #6
ID : 10
Format : UTF-8
Codec ID : S_TEXT/UTF8
Codec ID/Info : UTF-8 Plain Text
Title : Full - SDH
Language : English
Default : No
Forced : No

Text #7
ID : 11
Format : UTF-8
Codec ID : S_TEXT/UTF8
Codec ID/Info : UTF-8 Plain Text
Title : Full - SDH, v2
Language : English
Default : No
Forced : No

Text #8
ID : 12
Format : UTF-8
Codec ID : S_TEXT/UTF8
Codec ID/Info : UTF-8 Plain Text
Title : Full - SDH, v2, Colored
Language : English
Default : No
Forced : No

Menu
00:00:00.000 : en:Chapter 01
00:02:57.175 : en:Chapter 02
00:05:48.305 : en:Chapter 03
00:09:36.908 : en:Chapter 04
00:12:02.011 : en:Chapter 05
00:14:56.729 : en:Chapter 06
00:19:38.343 : en:Chapter 07
00:22:42.318 : en:Chapter 08
00:26:09.442 : en:Chapter 09
00:31:03.987 : en:Chapter 10
00:33:42.644 : en:Chapter 11
00:35:58.989 : en:Chapter 12
00:40:35.599 : en:Chapter 13
00:44:04.974 : en:Chapter 14
00:47:38.813 : en:Chapter 15
00:51:52.025 : en:Chapter 16
00:54:43.070 : en:Chapter 17
00:58:57.617 : en:Chapter 18
01:02:13.438 : en:Chapter 19
01:04:54.181 : en:Chapter 20
01:07:52.400 : en:Chapter 21
01:11:53.182 : en:Chapter 22
01:15:15.135 : en:Chapter 23
01:18:05.721 : en:Chapter 24
01:20:57.935 : en:Chapter 25
01:23:13.279 : en:Chapter 26
01:26:39.610 : en:Chapter 27
01:29:24.399 : en:Chapter 28
01:32:09.148 : en:Chapter 29
01:34:41.175 : en:Chapter 30
01:36:37.457 : en:Chapter 31
01:38:04.587 : en:Chapter 32
01:41:03.181 : en:Chapter 33
01:43:11.100 : en:Chapter 34
01:47:12.341 : en:Chapter 35
01:50:33.001 : en:Chapter 36

pb.wtf



Скачать Дикая через торрент http://i72.fastpic.ru/big/2015/1008/c2/e09875bc7dfe8704a9b0f9b911b9e7c2.png Скачать фильм Дикая через торрент бесплантно в хорошем качестве Описание: В центре сюжета Шерил Стрэйд, раздавленная неудавшимся браком и смертью матери и потерявшая всякую надежду на счастье женщина, ... 10 10 9
Info! Золотая раздача, скачанное не засчитывается.
Торрент: Зарегистрирован [2015-10-08 11:12] · скачан: 121 раз
Статус: √ проверено
Размер: 6.78 GB
Как cкачать? Как скачать Дикая через торрент | qTorrent

% Раздел Тема Автор DL S | L
Фильмы до 2000 г. [ 2 GB ] Дикий дикий Запад / Wild Wild West [1999 ... HDTVRip] chaga2009 Скачать
1 | 1
Классические порно фильмы [ 1.09 GB ] Дикие игривые девушки / Wild PlayGirls [1982 Classic Anal Double Penetration Fisting All Sex DVDRip лицензия] Shaidi Скачать
1 | 0
Большие сиськи [ 257 MB ] Эпизод-2: Охота за дикими брызгами / Ep-2: Hunting the Wild Squirter [2013 Ass Worship Squirt Chef Huge Tits Raven SiteRip] nn99nn Скачать
1 | 0
Фильмы 2012 [ 1.37 GB ] Звери дикого Юга / Beasts of the Southern Wild [2012 HDRip MVO лицензия] кэп Скачать
1 | 0
Фильмы [HD 720p, 1080p] (Хороший звук DUB, MVO) [ 9.7 GB ] Дикая орхидея / Wild Orchid [1989 BDRip 720p] DUB 4xMVO 3xAVO + Original + Sub _denis_100 Скачать
1 | 0
Фильмы (HD 720p, 1080p) (48-60 fps) [ 3.75 GB ] Дикий дикий Запад / Дикий дикий Вест / Wild Wild West [1999 BDRip 720p ] slaventi-69 Скачать
1 | 0
Трейлеры и дополнительные материалы к фильмам [ 969 MB ] Дикая / Wild [2014 биография DCPRip 2k] [Hi10P Hi444PP] Трейлер от R.G. PiratFilms Messa-fan Скачать
1 | 0

28-11-2019 20:33  

Отключить всю рекламу на сайте

    Дорогой пользователь! Огромная просьба, поблагодарите релизера, оцените раздачу и оставьте свои комментарий, если Вы скачали Дикая через торрент бесплатно! Внесите свою лепту в развитие PiratBit!
    Комментировать посты могут только пользователи прошедшие не сложную регистрацию
    Показать сообщения:    

    Дикая через торрент
    Скачать бесплатно Дикая
    Дикая скачать торрент
    Дикая смотреть онлайн
    Cкачать фильм Дикая бесплатно
    Дикая скачать торрент в хорошем качестве
    Дикая смотреть онлайн бесплатно в хорошем качестве


    Вы не можете начинать темы
    Вы не можете отвечать на сообщения
    Вы не можете редактировать свои сообщения
    Вы не можете удалять свои сообщения
    Вы не можете голосовать в опросах
    Вы не можете прикреплять файлы к сообщениям
    Вы можете скачивать файлы