Ссылка на приватное зеркало нашего сайта всего за 1$. Внимание количество ограничено!!!

2 сезон

iTunes

1 сезон

1

2 сезон

2 сезон

iTunes

1 сезон

RePack

30

Новинка

ВАЖНО

ИГРА 18+

pack

RePack

MK11
pack

Забери бонус

RePack

jed

!!Акция!!

Alien_Rage

RePack

fifa19

RePack

Assassins Creed: Odyssey

RePack

NEED FOR SPEED™ PAYBACK

4 сезон

9 сезон

Бесстыжие 9 сезон

Все сериалы

все сериалы на PB.wtf

RePack

FAR CRY 5
  

128 ударов сердца в минуту / We Are Your Friends (Макс Джозеф) [2015, драма, мелодрама, музыка, WEB-DL 1080p] Дубляж] iTunes pb.wtf

128 ударов сердца в минуту через торрент pb.wtf

Раздают: 1 [ 0 KB/s ]
Размер: 3.5 GB | Добавлен: 5 лет 1 мес. назад | Торрент скачан:540 раз
Скачать  

08-10-2015 12:18 128 ударов сердца в минуту Скачать торрент  

128 ударов сердца в минуту / We Are Your Friends«Какой ритм у твоей мечты?»

  • Год выхода: 2015
  • Жанр: драма, мелодрама, музыка

  • Страна: Великобритания, Франция, США
  • Продолжительность: 01:32:02
  • Перевод: Дубляж - [Лицензия / iTunes]
  • Режиссер: Макс Джозеф
  • В ролях:

    Зак Эфрон (Cole), Уэс Бентли (James), Эмили Ратаковски (Sophie), Джонни Уэстон (Mason), Шайло Фернандес (Ollie), Алекс Шеффер (Squirrel), Джон Бернтал (Paige), Алисия Коппола (Mrs. Romero), Уайли М. Пикетт (Carl), Джон Абрахамс (Nicky), Молли Хэйгэн (Francine), Бриттани Фурлан (Sara)


  • Лос-Анджелес, Калифорния - это мир бесконечных возможностей днем и нереальных голливудских вечеринок ночью. Оба этих мира стремится покорить молодой DJ по имени Коул, неустанно работающий над своим пробивным треком, который должен взорвать весь мир. Его замечает и берет под крыло опытный продюсер Джеймс, но все становится крайне запутанным, когда Коул влюбляется в молодую подружку Джеймса. Вскоре перед Коулом встает непростой выбор между любовью, верностью, старыми друзьями и будущим, о котором он так мечтает.

  • Качество: WEB-DL 1080p
  • Формат: MKV
  • Видео кодек: AVC
  • Аудио кодек: AC3
  • Видео: AVC, 1920x1080 (16:9), 4954 kbps, 25 fps, 0,096 bpp
  • Аудио: русский / AC3 / 5.1 / 48 kHz / 384 kbps / 16 bit |Дубляж, iTunes|
  • Навигация по главам: есть

    Код:

    General
    Unique ID                                : 171535038549690290446067639173793300035 (0x810C725C995007C79F60A2112A51BE43)
    Complete name                            : H:\128.udAP0B.2015.D.WEB-DL.1080p.mkv
    Format                                   : Matroska
    Format version                           : Version 4 / Version 2
    File size                                : 3.50 GiB
    Duration                                 : 1h 32mn
    Overall bit rate                         : 5 447 Kbps
    Encoded date                             : UTC 2015-10-08 09:37:46
    Writing application                      : mkvmerge v6.9.1 ('Blue Panther') 64bit built on Apr 18 2014 18:23:38
    Writing library                          : libebml v1.3.0 + libmatroska v1.4.1

    Video
    ID                                       : 1
    Format                                   : AVC
    Format/Info                              : Advanced Video Codec
    Format profile                           : High@L4.0
    Format settings, CABAC                   : Yes
    Format settings, ReFrames                : 4 frames
    Codec ID                                 : V_MPEG4/ISO/AVC
    Duration                                 : 1h 32mn
    Bit rate                                 : 4 954 Kbps
    Width                                    : 1 920 pixels
    Height                                   : 1 080 pixels
    Display aspect ratio                     : 16:9
    Frame rate                               : 25.000 fps
    Color space                              : YUV
    Chroma subsampling                       : 4:2:0
    Bit depth                                : 8 bits
    Scan type                                : Progressive
    Bits/(Pixel*Frame)                       : 0.096
    Stream size                              : 3.19 GiB (91%)
    Language                                 : English
    Default                                  : Yes
    Forced                                   : No
    Color primaries                          : BT.709-5, BT.1361, IEC 61966-2-4, SMPTE RP177
    Transfer characteristics                 : BT.709-5, BT.1361
    Matrix coefficients                      : BT.709-5, BT.1361, IEC 61966-2-4 709, SMPTE RP177

    Audio
    ID                                       : 2
    Format                                   : AC-3
    Format/Info                              : Audio Coding 3
    Mode extension                           : CM (complete main)
    Codec ID                                 : A_AC3
    Duration                                 : 1h 32mn
    Bit rate mode                            : Constant
    Bit rate                                 : 384 Kbps
    Channel(s)                               : 6 channels
    Channel positions                        : Front: L C R, Side: L R, LFE
    Sampling rate                            : 48.0 KHz
    Bit depth                                : 16 bits
    Compression mode                         : Lossy
    Stream size                              : 253 MiB (7%)
    Language                                 : Russian
    Default                                  : Yes
    Forced                                   : No

    Menu
    00:00:00.000                             : en:Глава 1
    00:05:00.000                             : en:Глава 2
    00:10:28.000                             : en:Глава 3
    00:15:42.000                             : en:Глава 4
    00:21:58.000                             : en:Глава 5
    00:28:10.000                             : en:Глава 6
    00:33:22.000                             : en:Глава 7
    00:38:41.000                             : en:Глава 8
    00:43:54.000                             : en:Глава 9
    00:49:54.000                             : en:Глава 10
    00:55:21.000                             : en:Глава 11
    01:01:52.000                             : en:Глава 12
    01:07:04.000                             : en:Глава 13
    01:13:49.000                             : en:Глава 14
    01:19:05.000                             : en:Глава 15
    01:25:22.000                             : en:Глава 16

    Скриншоты:


    © Оформление by -Lexx- pb.wtf



  • Скачать 128 ударов сердца в минуту через торрент http://pic.kartinco.top/images/6/stazu.jpg Скачать фильм 128 ударов сердца в минуту через торрент бесплантно в хорошем качестве qw.png Лос-Анджелес, Калифорния - это мир бесконечных возможностей днем и нереальных голливудских вечеринок ночью. Оба этих мира ... 10 10 14
    Info! Золотая раздача, скачанное не засчитывается.
    Торрент: Зарегистрирован [2015-10-08 12:19] · скачан: 540 раз
    Статус: √ проверено
    Размер: 3.5 GB
    Как cкачать? Как скачать 128 ударов сердца в минуту через торрент | qTorrent

    % Раздел Тема Автор DL S | L
    R.G. Resident & PiratVoice - Фильмы, Видео [ 1.46 GB ] 128 ударов сердца в минуту / We Are Your Friends [2015 музыка HDRip ] от R.G. Resident Dean24 Скачать
    1 | 0
    R.G. Resident & PiratVoice - Фильмы, Видео [ 2.18 GB ] 128 ударов сердца в минуту / We Are Your Friends [2015 музыка HDRip-AVC ] schultz Скачать
    1 | 0
    Фильмы (Blu-ray, BD-Remux, HDDVD) [ 23.49 GB ] 128 ударов сердца в минуту / We Are Your Friends [2015 музыка BDRemux от BLUEBIRD] Russian Mafia Скачать
    1 | 0
    Фильмы 2015 [DVDrip, WEB-DLRip, HDrip] [ 1.42 GB ] 128 ударов сердца в минуту / We Are Your Friends [2015 музыка BDRip] ] Twi7ter Скачать
    1 | 0

    28-11-2019 20:33  

    Отключить всю рекламу на сайте

    08-10-2015 13:22 128 ударов сердца в минуту Скачать торрент  

    На третьем скрине Варнава?))pb.wtf



    09-10-2015 04:16 128 ударов сердца в минуту Скачать торрент  

    Губы маловаты)pb.wtf



      Дорогой пользователь! Огромная просьба, поблагодарите релизера, оцените раздачу и оставьте свои комментарий, если Вы скачали 128 ударов сердца в минуту через торрент бесплатно! Внесите свою лепту в развитие PiratBit!
      Комментировать посты могут только пользователи прошедшие не сложную регистрацию
      Показать сообщения:    

      128 ударов сердца в минуту через торрент
      Скачать бесплатно 128 ударов сердца в минуту
      128 ударов сердца в минуту скачать торрент
      128 ударов сердца в минуту смотреть онлайн
      Cкачать фильм 128 ударов сердца в минуту бесплатно
      128 ударов сердца в минуту скачать торрент в хорошем качестве
      128 ударов сердца в минуту смотреть онлайн бесплатно в хорошем качестве


      Вы не можете начинать темы
      Вы не можете отвечать на сообщения
      Вы не можете редактировать свои сообщения
      Вы не можете удалять свои сообщения
      Вы не можете голосовать в опросах
      Вы не можете прикреплять файлы к сообщениям
      Вы можете скачивать файлы