Ссылка на приватное зеркало нашего сайта всего за 1$. Внимание количество ограничено!!!

2 сезон

iTunes

1 сезон

1

2 сезон

2 сезон

iTunes

1 сезон

RePack

30

Новинка

ВАЖНО

ИГРА 18+

pack

RePack

MK11
pack

Забери бонус

RePack

jed

!!Акция!!

Alien_Rage

RePack

fifa19

RePack

Assassins Creed: Odyssey

RePack

NEED FOR SPEED™ PAYBACK

4 сезон

9 сезон

Бесстыжие 9 сезон

Все сериалы

все сериалы на PB.wtf

RePack

FAR CRY 5
  

Ты, я и конец света / You, Me and the Apocalypse / Сезон: 1 / Серии 1-9 из 10 (Сауль Метцштайн / Saul Metzstein, Тим Киркби / Tim Kirkby, Майкл Энглер / Michael Engler) [2015 , США, Великобритания, комедия, HDTVRip-AVC] MVO [BaibaKo] pb.wtf

Ты, я и конец света через торрент pb.wtf

Размер: 8.7 GB | Добавлен: 4 года 10 мес. назад | Торрент скачан:23 раза
Скачать  

08-10-2015 12:29 Ты, я и конец света Скачать торрент  

Ты, я и конец света / You, Me and the Apocalypse


  • Год выпуска: 2015

  • Страна: США, Великобритания
  • Жанр: комедия
  • Продолжительность: 00:43:52 (Серия)
  • Перевод: Профессиональный многоголосый закадровый [BaibaKo]

  • Режиссер: Сауль Метцштайн / Saul Metzstein, Тим Киркби / Tim Kirkby, Майкл Энглер / Michael Engler
  • В ролях:

    Кайл Соллер (Scotty McNiell), Мэтью Бэйнтон (Ariel), Дженна Фишер (Rhonda McNeil), Джоэль Фрай (Dave), Эдвард Джадж (Max Friedberg), Роб Лоу (Father Jude), Меган Маллалли (Leanne Parkins), Пэтерсон Джозеф (General Arnold Gaines), Gaia Scodellaro (Sister Celine), Макс Браун (Dr. Samuel), Найджел Барбер (General), Пол Блэкуэлл (Court Guard)


  • Комедийная драма расскажет о разношёрстной компании поначалу незнакомых друг с другом людей, объединиться которых побудила катастрофа планетарного масштаба: громадная комета движется к Земле, чтобы смести с её лица всё живое. Главные герои засели в одном из подземных убежищ городка Слау в двадцати милях от Лондона, дабы понаблюдать за концом света.
  • Рейтинг:



  • Качество: HDTVRip-AVC
  • Формат: :MPEG-4
  • Видео кодек: AVC
  • Аудио кодек: AC3
  • Видео: 2500 Кбит/сек, 1024*576 (16:9), в 25,000 кадров/сек, AVC
  • Аудио №1: русский 384 Кбит/сек, 48,0 КГц, 16 бит, 6 каналов, AC-3 |[BaibaKo]|
  • Аудио №2: английский 384 Кбит/сек, 48,0 КГц, 16 бит, 6 каналов, AC-3
  • Релиз от: GEKADOL

    Код:

    Внимание! Раздача ведётся путём добавления новых серий; при каждом добавлении создаётся новый торрент. Чтобы начать докачку новой серии, пользователям необходимо сделать следующее:
    (1) остановить скачивание,
    (2) удалить старый торрент у себя из клиента (старые серии удалять не надо),
    (3) скачать новый торрент и запустить его у себя в клиенте вместо старого, при этом указать клиенту путь в старую папку куда и должно происходить скачивание новых серий.
    Ваш клиент при этом должен произвести хеширование (проверку) старой папки (если не производит сам - помогите ему сделать это), и будет докачивать только те серии которых у вас ещё нет. Старые серии при этом не удаляются, а продолжают раздаваться!
    Eсли вы уже удалили старые серии, то предотвратить повторную закачку старых серий можно, отжав галочку в соответствующих местах при запуске нового торрента. По возможности, желательно не удалять старые серии как можно дольше чтобы релизёр не столько продолжал раздавать старые серии, а смог сконцентрироваться на новых.


    Код:

    Общее
    Полное имя                               : H:\Ты, я и конец света\You.Me.and.the.Apocalypse.s01e01.HDTVRip-AVC.Rus.Eng.BaibaKo.tv.mp4
    Формат                                   : MPEG-4
    Профиль формата                          : Base Media
    Идентификатор кодека                     : isom
    Размер файла                             : 1000 Мбайт
    Продолжительность                        : 43 м.
    Общий поток                              : 3185 Кбит/сек
    Программа кодирования                    : XviD4PSP 7.0.163
    encoding_info                            : MATROSKA / WEBM > MP4 / H264 > X264 CBR 2500kbps HQ1 / AC3 > AC3 CBR 384kbps / AC3 > AC3 CBR 384kbps

    Видео
    Идентификатор                            : 1
    Формат                                   : AVC
    Формат/Информация                        : Advanced Video Codec
    Профиль формата                          : High@L3.1
    Параметр CABAC формата                   : Да
    Параметр ReFrames формата                : 4 кадра
    Идентификатор кодека                     : avc1
    Идентификатор кодека/Информация          : Advanced Video Coding
    Продолжительность                        : 43 м.
    Битрейт                                  : 2500 Кбит/сек
    Ширина                                   : 1024 пикселя
    Высота                                   : 576 пикселей
    Соотношение сторон                       : 16:9
    Режим частоты кадров                     : Постоянный
    Частота кадров                           : 25,000 кадров/сек
    Цветовое пространство                    : YUV
    Субдискретизация насыщенности            : 4:2:0
    Битовая глубина                          : 8 бит
    Тип развёртки                            : Прогрессивная
    Бит/(Пиксели*Кадры)                      : 0.170
    Размер потока                            : 757 Мбайт (76%)
    Библиотека кодирования                   : x264 core 148 r2579M 73ae2d1
    Настройки программы                      : cabac=1 / ref=3 / deblock=1:-1:-1 / analyse=0x3:0x133 / me=hex / subme=7 / psy=1 / psy_rd=1,00:0,20 / mixed_ref=1 / me_range=16 / chroma_me=1 / trellis=1 / 8x8dct=1 / cqm=0 / deadzone=21,11 / fast_pskip=1 / chroma_qp_offset=-3 / threads=6 / lookahead_threads=1 / sliced_threads=0 / nr=0 / decimate=1 / interlaced=0 / bluray_compat=0 / constrained_intra=0 / bframes=3 / b_pyramid=2 / b_adapt=2 / b_bias=0 / direct=3 / weightb=1 / open_gop=0 / weightp=2 / keyint=250 / keyint_min=25 / scenecut=40 / intra_refresh=0 / rc_lookahead=40 / rc=cbr / mbtree=1 / bitrate=2500 / ratetol=1,0 / qcomp=0,60 / qpmin=0 / qpmax=69 / qpstep=4 / vbv_maxrate=2500 / vbv_bufsize=2500 / nal_hrd=none / filler=0 / ip_ratio=1,40 / aq=1:1,00
    Цветовой диапазон                        : Limited
    Основные цвета                           : BT.709
    Характеристики трансфера                 : BT.709
    Коэффициенты матрицы                     : BT.709

    Аудио #1
    Идентификатор                            : 2
    Формат                                   : AC-3
    Формат/Информация                        : Audio Coding 3
    Расширение режима                        : CM (complete main)
    Параметр Endianness формата              : Big
    Идентификатор кодека                     : ac-3
    Продолжительность                        : 43 м.
    Вид битрейта                             : Постоянный
    Битрейт                                  : 384 Кбит/сек
    Каналы                                   : 6 каналов
    Расположение каналов                     : Front: L C R, Side: L R, LFE
    Частота                                  : 48,0 КГц
    Битовая глубина                          : 16 бит
    Метод сжатия                             : С потерями
    Размер потока                            : 121 Мбайт (12%)
    Язык                                     : Russian

    Аудио #2
    Идентификатор                            : 3
    Формат                                   : AC-3
    Формат/Информация                        : Audio Coding 3
    Расширение режима                        : CM (complete main)
    Параметр Endianness формата              : Big
    Идентификатор кодека                     : ac-3
    Продолжительность                        : 43 м.
    Вид битрейта                             : Постоянный
    Битрейт                                  : 384 Кбит/сек
    Каналы                                   : 6 каналов
    Расположение каналов                     : Front: L C R, Side: L R, LFE
    Частота                                  : 48,0 КГц
    Битовая глубина                          : 16 бит
    Метод сжатия                             : С потерями
    Размер потока                            : 121 Мбайт (12%)
    Язык                                     : English




    Скриншоты:
    скриншот   скриншот   скриншот   скриншот   скриншот   скриншот  
    скриншот  

    Раздача ведётся путём добавления новых серий. Добавлена 9 серия (10.01.2016).Просьба перекачать торрент файл.

    pb.wtf



  • Скачать Ты, я и конец света через торрент http://i2.imageban.ru/out/2015/10/08/4609b79a13be0602103402f3835449c1.jpg Скачать фильм Ты, я и конец света через торрент бесплантно в хорошем качестве qw.png Комедийная драма расскажет о разношёрстной компании поначалу незнакомых друг с другом людей, объединиться которых побудила ... 10 10 5
    Info! Золотая раздача, скачанное не засчитывается.
    Торрент: Зарегистрирован [2016-01-10 03:50] · скачан: 23 раз
    Статус: √ проверено
    Размер: 8.7 GB
    Как cкачать? Как скачать Ты, я и конец света через торрент | qTorrent



    Последний раз редактировалось: GEKADOL (2016-01-10 03:50), всего редактировалось 6 раз(а)

    28-11-2019 20:33  

    Отключить всю рекламу на сайте

    28-10-2015 11:50 Ты, я и конец света Скачать торрент  

    че та бабайки совсем обленились. алекс-фильм уже четвертую озвучили, а эти тока две((pb.wtf



    12-12-2015 04:12 Ты, я и конец света Скачать торрент  

    tamburetko писал(а):

    че та бабайки совсем обленились. алекс-фильм уже четвертую озвучили, а эти тока две((

    Да уж)pb.wtf



    22-12-2015 16:43 Ты, я и конец света Скачать торрент  

    после 5 серии смотреть нечего...pb.wtf



      Дорогой пользователь! Огромная просьба, поблагодарите релизера, оцените раздачу и оставьте свои комментарий, если Вы скачали Ты, я и конец света через торрент бесплатно! Внесите свою лепту в развитие PiratBit!
      Комментировать посты могут только пользователи прошедшие не сложную регистрацию
      Показать сообщения:    

      Ты, я и конец света через торрент
      Скачать бесплатно Ты, я и конец света
      Ты, я и конец света скачать торрент
      Ты, я и конец света смотреть онлайн
      Cкачать фильм Ты, я и конец света бесплатно
      Ты, я и конец света скачать торрент в хорошем качестве
      Ты, я и конец света смотреть онлайн бесплатно в хорошем качестве


      Вы не можете начинать темы
      Вы не можете отвечать на сообщения
      Вы не можете редактировать свои сообщения
      Вы не можете удалять свои сообщения
      Вы не можете голосовать в опросах
      Вы не можете прикреплять файлы к сообщениям
      Вы можете скачивать файлы