Ссылка на приватное зеркало нашего сайта всего за 1$. Внимание количество ограничено!!!

2 сезон

iTunes

1 сезон

1

2 сезон

2 сезон

iTunes

1 сезон

RePack

30

Ultimate

ВАЖНО

ИГРА 18+

pack

RePack

MK11
pack

Забери бонус

RePack

jed

!!Акция!!

Alien_Rage

RePack

fifa19

RePack

Assassins Creed: Odyssey

RePack

NEED FOR SPEED™ PAYBACK

4 сезон

9 сезон

Бесстыжие 9 сезон

Все сериалы

все сериалы на PB.wtf

RePack

FAR CRY 5
  

Скорпион / Scorpion / Сезон: 1 / Серии: 1-22 из 22 [2014, боевик, драма, WEB-DLRip] MVO (IdeaFilm) pb.wtf

Скорпион через торрент pb.wtf

Размер: 11.74 GB | Добавлен: 5 лет 1 мес. назад | Торрент скачан:35 раз
Скачать  

08-10-2015 15:08 Скорпион Скачать торрент  

Скорпион / Scorpion

Год выпуска: 2014
Страна: США
Жанр: боевик, драма
Продолжительность: ~ 00:45:00
Перевод: Профессиональный (многоголосый) - IdeaFilm
Режиссер: Сэм Хилл, Мэл Дэмски, Милан Чейлов
В ролях:

Элиес Габел (Walter O'Brien), Кэтрин МакФи (Paige Dineen), Эдди Кэй Томас (Toby Curtis), Джейдин Вонг (Happy Quinn), Эри Стидэм (Sylvester Dodd), Роберт Патрик (Cabe Gallo), Райли Б. Смит (Ralph Dineen), Брендан П. Хайнс (Drew), Дэвид Фабрицио (Merrick), Камилла Гуати (Megan O'Brien), Кевин Уайзман (Ray Spiewack), Энди Бакли (Richard Elia)

Описание:
Сюжет основан на реальных событиях. Это история об эксцентричном гении и его группе вундеркиндов. Они являются аналитическим центром, работающим на службу национальной безопасности, и их задача - разбираться со сложными угрозами современности.
Рейтинг:


Качество: WEB-DLRip
Формат: AVI
Видео кодек: XviD
Аудио кодек: MP3
Видео: XviD, 720x400 (16:9), 1582 kbps, 23,976 fps, 0,229 bpp
Аудио №1: Русский MP3 / 2.0 / 48 kHz / 128 kbps
Аудио №2: Английский MP3 / 2.0 / 48 kHz / 128 kbps

Код:

General
Complete name                            : E:\Films\Series\Scorpion. S01 WEB-DLRip Rus,Eng[Ideafilm]\Scorpion S01E01 WEB-DLRip RusEngL [Ideafilm].avi
Format                                   : AVI
Format/Info                              : Audio Video Interleave
File size                                : 552 MiB
Duration                                 : 41mn 40s
Overall bit rate                         : 1 853 Kbps
Writing application                      : VirtualDubMod 1.5.10.3 (build 2550/release)
Writing library                          : VirtualDubMod build 2550/release

Video
ID                                       : 0
Format                                   : MPEG-4 Visual
Format profile                           : Advanced Simple@L5
Format settings, BVOP                    : 1
Format settings, QPel                    : No
Format settings, GMC                     : No warppoints
Format settings, Matrix                  : Default (H.263)
Codec ID                                 : XVID
Codec ID/Hint                            : XviD
Duration                                 : 41mn 40s
Bit rate                                 : 1 583 Kbps
Width                                    : 720 pixels
Height                                   : 400 pixels
Display aspect ratio                     : 16:9
Frame rate                               : 23.976 fps
Color space                              : YUV
Chroma subsampling                       : 4:2:0
Bit depth                                : 8 bits
Scan type                                : Progressive
Compression mode                         : Lossy
Bits/(Pixel*Frame)                       : 0.229
Stream size                              : 472 MiB (85%)
Writing library                          : XviD 1.2.1 (UTC 2008-12-04)

Audio #1
ID                                       : 1
Format                                   : MPEG Audio
Format version                           : Version 1
Format profile                           : Layer 3
Codec ID                                 : 55
Codec ID/Hint                            : MP3
Duration                                 : 41mn 40s
Bit rate mode                            : Constant
Bit rate                                 : 128 Kbps
Channel(s)                               : 2 channels
Sampling rate                            : 48.0 KHz
Compression mode                         : Lossy
Stream size                              : 38.1 MiB (7%)
Alignment                                : Aligned on interleaves
Interleave, duration                     : 42 ms (1.00 video frame)
Interleave, preload duration             : 504 ms
Writing library                          : LAME3.99r
Encoding settings                        : -m s -V 4 -q 2 -lowpass 17 -b 128

Audio #2
ID                                       : 2
Format                                   : MPEG Audio
Format version                           : Version 1
Format profile                           : Layer 3
Codec ID                                 : 55
Codec ID/Hint                            : MP3
Duration                                 : 41mn 40s
Bit rate mode                            : Constant
Bit rate                                 : 128 Kbps
Channel(s)                               : 2 channels
Sampling rate                            : 48.0 KHz
Compression mode                         : Lossy
Stream size                              : 38.1 MiB (7%)
Alignment                                : Aligned on interleaves
Interleave, duration                     : 42 ms (1.00 video frame)
Interleave, preload duration             : 504 ms
Writing library                          : LAME3.99r
Encoding settings                        : -m s -V 4 -q 2 -lowpass 17 -b 128



pb.wtf



Скачать Скорпион через торрент http://pic.kartinco.top/images/11/1orab.jpg Скачать фильм Скорпион через торрент бесплантно в хорошем качестве Описание: Сюжет основан на реальных событиях. Это история об эксцентричном гении и его группе вундеркиндов. Они являются аналитическим ... 10 10 3
Торрент: Зарегистрирован [2015-10-08 15:08] · скачан: 35 раз
Статус: √ проверено
Размер: 11.74 GB
Как cкачать? Как скачать Скорпион через торрент | qTorrent

% Раздел Тема Автор DL S | L
Зарубежные сериалы [ 25.27 GB ] Скорпион / Scorpion / Сезон: 4 / Серии: 1-22 из 22 [2017 WEB-DL 720p] MVO [Jaskier] bober100 Скачать
1 | 0
Зарубежные сериалы [ 10.76 GB ] Скорпион / Scorpion / Сезон: 4 / Серии: 1-22 из 22 [2017 WEB-DLRip] MVO [Jaskier] bober100 Скачать
1 | 0
Зарубежные сериалы [ 11.64 GB ] Скорпион / Scorpion / Сезон: 4 / Серии 1-22 из 22 [2017 WEB-DLRip WEBRip] MVO [BaibaKo] GEKADOL Скачать
1 | 0
Зарубежные сериалы [ 12.15 GB ] Скорпион / Scorpion / Сезон: 1 / Серии 1-22 из 22 [2014 WEB-DLRip-AVC MVO] [BaibaKo] GEKADOL Скачать
1 | 0

28-11-2019 20:33  

Отключить всю рекламу на сайте

08-10-2015 16:17 Скорпион Скачать торрент  

блин. я думал, мортал комбат :)pb.wtf



08-10-2015 16:57 Скорпион Скачать торрент  

LokiStar писал(а):

блин. я думал, мортал комбат :)

Ладно бы в названии было одно из редких имён типа Sub Zero, Kung Lao, Kitana и т.п. Но Скорпион ? И такие ассоциации... Да ты,батенька, фанат мортала. Впрочем, винить тебя не за что, сам фанател от первых двух частей. Ну а по сериалу - поначлу понравилось, но чем дальше, тем хуже. Я смотрел в озвучке "байбако". Хватило меня на 12 серий,дальше не смотрел. Благо в сети хватает и более интересных фильмов.pb.wtf



    Дорогой пользователь! Огромная просьба, поблагодарите релизера, оцените раздачу и оставьте свои комментарий, если Вы скачали Скорпион через торрент бесплатно! Внесите свою лепту в развитие PiratBit!
    Комментировать посты могут только пользователи прошедшие не сложную регистрацию
    Показать сообщения:    

    Скорпион через торрент
    Скачать бесплатно Скорпион
    Скорпион скачать торрент
    Скорпион смотреть онлайн
    Cкачать фильм Скорпион бесплатно
    Скорпион скачать торрент в хорошем качестве
    Скорпион смотреть онлайн бесплатно в хорошем качестве


    Вы не можете начинать темы
    Вы не можете отвечать на сообщения
    Вы не можете редактировать свои сообщения
    Вы не можете удалять свои сообщения
    Вы не можете голосовать в опросах
    Вы не можете прикреплять файлы к сообщениям
    Вы можете скачивать файлы