новый адрес
Ссылка на приватное зеркало всего за 1$. Внимание количество ограничено!!!

iTunes

1+1

iTunes

мы

WEB-DL

1

iTunes

Чернобыль

iTunes

Ральф против интернета

Лицензия

ПШазам

Лицензия

Оно 2

Лицензия

30
pack

Вам бонус

ВАЖНО

!!Акция!!

Alien_RageХит недели

RePack

Resident Evil 21

ИГРА 18+

pack

RePack

jed

!!Акция!!

Alien_Rage

RePack

fifa19

RePack

Assassins Creed: Odyssey

RePack

NEED FOR SPEED™ PAYBACK

3 сезон

9 сезон

Бесстыжие 9 сезон

Все сериалы

все сериалы на PB.wtf

RePack

FAR CRY 5
Ребята, катастрофически не хватает 1900р. для оплаты серверов за Октябрь (всвязи с блокировками трафик упал в 3 раза), 1-2р., выручайте.
  

Особое подразделение (Георгий Щукин, Владимир Иванов) [1984, СССР, военный, SATRip от AVP Studio] pb.wtf

Особое подразделение через торрент pb.wtf

Размер: 744 MB | Добавлен: 4 года 2 мес. назад | Торрент скачан:42 раза
Скачать  

09-10-2015 11:56 Особое подразделение Скачать торрент  

Особое подразделение
Страна: СССР
Производство: Мосфильм

Жанр: военный фильм
Год выпуска: 1984
Продолжительность: 00:58:02

Перевод: Не требуется
Cубтитры: нет
Оригинальная аудиодорожка: русский

Режиссер: Владимир Иванов, Георгий Щукин

В ролях:
Ольга Башкина, Николай Стоцкий, Татьяна Лебедева, Иван Щёголев, Светлана Рябова, Ирина Ефремова, Марина Сахарова, Алексей Елизаветский, Владимир Некрасов, Дмитрий Липскеров, Павел Семенихин, Евгений Буренков, Сергей Яковлев, Григорий Абрикосов, Юрий Саранцев, Тамара Сёмина, Вячеслав Шалевич, Николай Тимофеев...
Полный список актёров

Описание:
В основу этой киноистории легли реальные факты.
В июне 1941-го года курс выпускников театрального училища был направлен в Беловежск, чтобы создать в городе профессиональный театр. Война перечеркнула все планы. Став "Особым подразделением" - актерской бригадой в составе действующей армии, - герои фильма пройдут по многим фронтовым дорогам...

Исходник: DVВ
Тип релиза: SATRip
Контейнер: AVI

Видео: 688x304 (4:3), 25 fps, XviD ~ 1584 kbps avg, 0.303 bit/pixel
Аудио: 48 kHz, Dolby Digital AC3 2.0, 192 kbps

Раздача от:
Общее
Полное имя : Osoboe.podrazdelenie.1984.SATRip_[New-team]_by_AVP_Studio.avi
Формат : AVI
Формат/Информация : Audio Video Interleave
Размер файла : 741 Мбайт
Продолжительность : 58 м.
Общий поток : 1785 Кбит/сек
Программа кодирования : VirtualDubModRus 1.5.10.2 (build 2542/release)
Библиотека кодирования : VirtualDubMod build 2542/release

Видео
Идентификатор : 0
Формат : MPEG-4 Visual
Профиль формата : Advanced Simple@L5
Параметр BVOP формата : 1
Параметр QPel формата : Нет
Параметр GMC формата : Без точки перехода
Параметр матрицы формата : Выборочная
Идентификатор кодека : XVID
Идентификатор кодека/Подсказка : XviD
Продолжительность : 58 м.
Битрейт : 1584 Кбит/сек
Ширина : 688 пикселей
Высота : 304 пикселя
Соотношение сторон : 2,25:1
Частота кадров : 25,000 кадров/сек
Цветовое пространство : YUV
Субдискретизация насыщенности : 4:2:0
Битовая глубина : 8 бит
Тип развёртки : Прогрессивная
Метод сжатия : С потерями
Бит/(Пиксели*Кадры) : 0.303
Размер потока : 657 Мбайт (89%)
Библиотека кодирования : XviD 73

Аудио
Идентификатор : 1
Формат : AC-3
Формат/Информация : Audio Coding 3
Расширение режима : CM (complete main)
Параметр Endianness формата : Big
Идентификатор кодека : 2000
Продолжительность : 58 м.
Вид битрейта : Постоянный
Битрейт : 192 Кбит/сек
Каналы : 2 канала
Расположение каналов : Front: L R
Частота : 48,0 КГц
Битовая глубина : 16 бит
Метод сжатия : С потерями
Размер потока : 79,7 Мбайт (11%)
Выравнивание : Разделение по промежуткам
Продолжительность промежутка : 40 мс. (1,00 видеокадр)
Время предзагрузки промежутка : 500 мс
pb.wtf



Скачать Особое подразделение через торрент http://s019.radikal.ru/i641/1510/5f/c7cb6df0a7a9.png Скачать фильм Особое подразделение через торрент бесплантно в хорошем качестве Описание:В основу этой киноистории легли реальные факты.В июне 1941-го года курс выпускников театрального училища был направлен в ... 10 10 2
Торрент: Зарегистрирован [2015-10-09 11:56] · скачан: 42 раз
Статус: √ проверено
Размер: 744 MB
Как cкачать? Как скачать Особое подразделение через торрент | qTorrent

% Раздел Тема Автор DL S | L
Кино СССР [ 745 MB ] Особое подразделение [1984 СССР военный SATRip-AVC от AVP Studio] AVP Studio Скачать
1 | 0
Военное дело [ 252 MB ] Ветераны подразделений Особого риска [2014 документальный SATRip] GEKADOL Скачать
1 | 0

28-11-2019 20:33  

Отключить всю рекламу на сайте

    Дорогой пользователь! Огромная просьба, поблагодарите релизера, оцените раздачу и оставьте свои комментарий, если Вы скачали Особое подразделение через торрент бесплатно! Внесите свою лепту в развитие PiratBit!
    Комментировать посты могут только пользователи прошедшие не сложную регистрацию
    Показать сообщения:    

    Особое подразделение через торрент
    Скачать бесплатно Особое подразделение
    Особое подразделение скачать торрент
    Особое подразделение смотреть онлайн
    Cкачать фильм Особое подразделение бесплатно
    Особое подразделение скачать торрент в хорошем качестве
    Особое подразделение смотреть онлайн бесплатно в хорошем качестве


    Вы не можете начинать темы
    Вы не можете отвечать на сообщения
    Вы не можете редактировать свои сообщения
    Вы не можете удалять свои сообщения
    Вы не можете голосовать в опросах
    Вы не можете прикреплять файлы к сообщениям
    Вы можете скачивать файлы