новый адрес
Ссылка на приватное зеркало всего за 1$. Внимание количество ограничено!!!

iTunes

1+1

iTunes

мы

WEB-DL

1

iTunes

Чернобыль

iTunes

Ральф против интернета

Лицензия

ПШазам

Лицензия

Оно 2

Лицензия

30
pack

Вам бонус

ВАЖНО

!!Акция!!

Alien_RageХит недели

RePack

Resident Evil 21

ИГРА 18+

pack

RePack

jed

!!Акция!!

Alien_Rage

RePack

fifa19

RePack

Assassins Creed: Odyssey

RePack

NEED FOR SPEED™ PAYBACK

3 сезон

9 сезон

Бесстыжие 9 сезон

Все сериалы

все сериалы на PB.wtf

RePack

FAR CRY 5
Ребята, катастрофически не хватает 1900р. для оплаты серверов за Октябрь (всвязи с блокировками трафик упал в 3 раза), 1-2р., выручайте.
  

Кинг Конг / King Kong (Питер Джексон) [2005 г., Фантастика, приключения, HDRip by Dean24] (Дубляж Лицензия) pb.wtf

Кинг Конг через торрент pb.wtf

Размер: 3.55 GB | Добавлен: 4 года 1 мес. назад | Торрент скачан:34 раза
Скачать  

09-10-2015 14:49 Кинг Конг Скачать торрент  

Кинг Конг / King KongГод выпуска: 2005
Страна: США, Германия, Новая Зеландия
Жанр: Фантастика, приключения
Продолжительность: 03:20:07 | Расширенная версия
Перевод: Дубляж | Лицензия
Субтитры: Нет

Режиссер: Питер Джексон
Продюссер: Жан Бленкин, Филиппа Бойенс, Питер Джексон, Фрэнсис Уолш
Сценарий: Филиппа Бойенс, Питер Джексон, Фрэнсис Уолш

Бюджет: 207 000 000
Премьера в мире: 5 декабря 2005



В ролях: Наоми Уоттс, Джек Блэк, Эдриан Броуди, Томас Кречманн, Колин Хэнкс, Энди Серкис, Ивэн Декстер Парк, Джэми Белл, Лобо Чан, Джон Саммер, Крэйг Холл, Кайл Чандлер,Билл Джонсон, Марк Хэдлоу, Джеральдин Брофи, Дэвид Дэнис, Дэвид Питту, Пип Мушин, Джим Нобелок, Рик Херберт, Ли Донахью

Описание: В 1933-м году съемочная группа под предводительством режиссера-неудачника Карла Дэнхэма отправляется на загадочный Остров Черепа неподалеку от Суматры, чтобы изучать легенды о гигантской горилле по кличке Конг. По прибытии на место они обнаруживают, что Кинг Конг и правда существует. Горилла живет в самой чаще непроходимых джунглей, где помимо него, спрятанные от всего мира, обитают многие создания из доисторических времен. Исследователи оказываются между двух огней - с одной стороны Кинг Конг, а с другой - его враги динозавры…

Качество: HDRip | BDRip 720p
Формат: AVI
Видео кодек: XviD
Аудио кодек: AC3
Видео: 720x304 (2.37:1), 23.976 fps, XviD build 50 ~2148 kbps avg, 0.41 bit/pixel
Аудио: 48 kHz, AC3 Dolby Digital, 3/2 (L,C,R,l,r) + LFE ch, ~384 kbps



Автор рипа: Dean24
|
Общее
Полное имя : D:\Мои документы\Фильмы\Сайт\King.Kong.HDRip.avi
Формат : AVI
Формат/Информация : Audio Video Interleave
Профиль формата : OpenDML
Размер файла : 3,55 Гбайт
Продолжительность : 3 ч. 20 м.
Общий поток : 2539 Кбит/сек
Программа кодирования : VirtualDubMod 1.5.10.3 | www.virtualdub-fr.org || (build 2550/release)
Библиотека кодирования : VirtualDubMod build 2550/release

Видео
Идентификатор : 0
Формат : MPEG-4 Visual
Профиль формата : Advanced Simple@L5
Параметр BVOP формата : 3
Параметр QPel формата : Нет
Параметр GMC формата : Без точки перехода
Параметр матрицы формата : Default (H.263)
Идентификатор кодека : XVID
Идентификатор кодека/Подсказка : XviD
Продолжительность : 3 ч. 20 м.
Битрейт : 2146 Кбит/сек
Ширина : 720 пикселей
Высота : 304 пикселя
Соотношение сторон : 2,35:1
Частота кадров : 23,976 кадра/сек
Цветовое пространство : YUV
Субдискретизация насыщенности : 4:2:0
Битовая глубина : 8 бит
Тип развёртки : Прогрессивная
Метод сжатия : С потерями
Бит/(Пиксели*Кадры) : 0.409
Размер потока : 3,00 Гбайт (84%)
Библиотека кодирования : XviD 1.2.1 (UTC 2008-12-04)

Аудио
Идентификатор : 1
Формат : AC-3
Формат/Информация : Audio Coding 3
Расширение режима : CM (complete main)
Параметр Endianness формата : Big
Идентификатор кодека : 2000
Продолжительность : 3 ч. 20 м.
Вид битрейта : Постоянный
Битрейт : 384 Кбит/сек
Каналы : 6 каналов
Расположение каналов : Front: L C R, Side: L R, LFE
Частота : 48,0 КГц
Битовая глубина : 16 бит
Метод сжатия : С потерями
Размер потока : 550 Мбайт (15%)
Выравнивание : Разделение по промежуткам
Продолжительность промежутка : 42 мс. (1,00 видеокадр)
Время предзагрузки промежутка : 500 мс.

pb.wtf



Скачать Кинг Конг через торрент http://i67.fastpic.ru/big/2015/1009/25/add82ebc30c98e92a958ca8b5e5ea925.png Скачать фильм Кинг Конг через торрент бесплантно в хорошем качестве Описание: В 1933-м году съемочная группа под предводительством режиссера-неудачника Карла Дэнхэма отправляется на загадочный Остров Черепа ... 10 10 7
Info! Золотая раздача, скачанное не засчитывается.
Торрент: Зарегистрирован [2015-10-09 14:49] · скачан: 34 раз
Статус: √ проверено
Размер: 3.55 GB
Как cкачать? Как скачать Кинг Конг через торрент | qTorrent

% Раздел Тема Автор DL S | L
Фильмы [HD 720p, 1080p] (Хороший звук DUB, MVO) [ 8.64 GB ] Кинг Конг / King Kong [2005 BDRip 1080p HEVC ] [Расширенная версия / Extended Cut] Мичман37 Скачать
1 | 0
Ultra HD (UHD: 2K, 4K, 8K) — видео сверхвысокой чёткости [ 70.7 GB ] Кинг Конг / King Kong [2005 UHD BDRip 2160p] DUB + 2xAVO + DVO + MVO [Расширенная Версия] sheker187 Скачать
1 | 0
Ultra HD (UHD: 2K, 4K, 8K) — видео сверхвысокой чёткости [ 100.19 GB ] Кинг Конг / King Kong [2005 Мело UHD BDRemux 2160p] 2xAVO+2xMVO +MVO +DUB [Режиссерская версия] [] bober100 Скачать
1 | 0
Фильмы [HD 720p, 1080p] (Хороший звук DUB, MVO) [ 10.06 GB ] Кинг Конг / King Kong [1933 BDRip 1080p by msltel] DVO msltel Скачать
1 | 0
Фильмы [HD 720p, 1080p] (Хороший звук DUB, MVO) [ 3.95 GB ] Кинг Конг / King Kong [1933 BDRip 720p by msltel] DVO msltel Скачать
1 | 0
Фильмы с авторской озвучкой [ 2.9 GB ] Кинг Конг / King Kong [2005 BDRip] [Extended Edition / Расширенная версия] [AVO] killermax2013 Скачать
1 | 0
Фильмы [HD 720p, 1080p] (Хороший звук DUB, MVO) [ 11.68 GB ] Кинг Конг / King Kong [2005 BDRip 1080p ] slaventi-69 Скачать
1 | 0

28-11-2019 20:33  

Отключить всю рекламу на сайте

09-10-2015 14:50 Кинг Конг Скачать торрент  

Самый увесистый рип получился. Намучился с ним изрядно)pb.wtf



09-10-2015 15:04 Кинг Конг Скачать торрент  

Dean24 писал(а):

Самый увесистый рип получился. Намучился с ним изрядно)

у фильма продолжительность большая, поэтому размер соответственно большой )pb.wtf



09-10-2015 15:08 Кинг Конг Скачать торрент  

Russian Mafia, да, старался угодить качеством картинки и звука)pb.wtf



09-10-2015 16:29 Кинг Конг Скачать торрент  

скорости бы(((pb.wtf



10-10-2015 08:59 Кинг Конг Скачать торрент  

Автору раздачи огромное спасибо. Хотел посмотреть и тут бах и релиз, спасибо, расширенную версию я еще не смотрел.pb.wtf



10-10-2015 11:17 Кинг Конг Скачать торрент  

oldGAMERu, всегда пожалуйста)pb.wtf



    Дорогой пользователь! Огромная просьба, поблагодарите релизера, оцените раздачу и оставьте свои комментарий, если Вы скачали Кинг Конг через торрент бесплатно! Внесите свою лепту в развитие PiratBit!
    Комментировать посты могут только пользователи прошедшие не сложную регистрацию
    Показать сообщения:    

    Кинг Конг через торрент
    Скачать бесплатно Кинг Конг
    Кинг Конг скачать торрент
    Кинг Конг смотреть онлайн
    Cкачать фильм Кинг Конг бесплатно
    Кинг Конг скачать торрент в хорошем качестве
    Кинг Конг смотреть онлайн бесплатно в хорошем качестве


    Вы не можете начинать темы
    Вы не можете отвечать на сообщения
    Вы не можете редактировать свои сообщения
    Вы не можете удалять свои сообщения
    Вы не можете голосовать в опросах
    Вы не можете прикреплять файлы к сообщениям
    Вы можете скачивать файлы