Ссылка на приватное зеркало нашего сайта всего за 1$. Внимание количество ограничено!!!

2 сезон

iTunes

1 сезон

1

2 сезон

2 сезон

iTunes

1 сезон

RePack

30

Новинка

ВАЖНО

ИГРА 18+

pack

RePack

MK11
pack

Забери бонус

RePack

jed

!!Акция!!

Alien_Rage

RePack

fifa19

RePack

Assassins Creed: Odyssey

RePack

NEED FOR SPEED™ PAYBACK

4 сезон

9 сезон

Бесстыжие 9 сезон

Все сериалы

все сериалы на PB.wtf

RePack

FAR CRY 5
  

Дневники Вампира / The Vampire Diaries / Сезон: 7 / Серии 22 из 22 [2015 г. Ужасы, фэнтези, драма, мелодрама, WEB-DLRip] MVO LostFilm pb.wtf

Дневники Вампира через торрент pb.wtf

Размер: 8.29 GB | Добавлен: 4 года 6 мес. назад | Торрент скачан:128 раз
Скачать  

10-10-2015 14:24 Дневники Вампира Скачать торрент  

Дневники Вампира / The Vampire Diaries
Год выпуска: 2015
Страна: США
Жанр: ужасы, фэнтези, триллер, драма, мелодрама, детектив
Продолжительность: ~ 00:43:00 серия
Перевод: Профессиональный (многоголосый, закадровый)

Режиссер: Маркос Сига, Роб Харди, Дэвид Фон Энкен, Дж. Миллер Тобин, Джон Беринг, Джошуа Батлер, Джон Дал, Лиз Фридлендер, Крис Грисмер



В ролях: Пол Уэсли, Иэн Сомерхолдер, Стивен Р. МакКуин, Катерина Грэхэм, Кэндис Аккола, Зак Рериг, Майкл Тревино, Джозеф Морган, Сара Каннинг, Кайла Юэлл, Дэвид Андерс, Клер Холт, Тейлор Кинни, Келли Ху, Роберт Пралго, Брайтон МакКлур, Михаэлла МакМанус и др.

Описание: Мистик Фоллс все еще защищен от любой магии, люди в нем наслаждаются безопасной и беззаботной жизнью. Однако сила заклятья не распространяется на леса, окружающие город. Там, наивных туристов, может ждать встреча со всеми жуткими сверхъестественными существами, которые больше не могут проникнуть в город. Елена не способна смириться и жить дальше без возлюбленного Деймона. Потому она вынуждает ведьм давать ей зелье, которое позволяет ей видеть его призрак. Также девушка стала нападать на людей и пить их кровь, и это все очень беспокоит Кэролайн. Стефан решил жить дальше и изменил многое. Он покинул Мистик Фоллс и живет в другом городе, подальше от старых бед, там он нашел себе новую профессию и новую девушку. Новым врагом для наших героев в сериале "Дневники Вампира" стане человек по имени Трип, он руководит отрядом ополченцев и всерьез намерен сместить действующего шерифа Форбс с ее должности, поскольку она потакала сверхъестественным существам.


Качество: WEB-DLRip
Формат: AVI
Видео кодек: XviD
Аудио кодек: MP3
Видео: 720x400 (16/9), 23.976 fps, 1600 Kbps
Аудио#1: mp3, 2 ch, 48.0 KHz, 192 kbps




General
Complete name : D:\Загрузка\Torrent\Дневники вампира (7 сезон ) - LostFilm.TV\S07E01.День первый из где-то двадцати двух тыся.avi
Format : AVI
Format/Info : Audio Video Interleave
File size : 548 MiB
Duration : 42mn 35s
Overall bit rate mode : Variable
Overall bit rate : 1 800 Kbps
Writing application : Nandub v1.0rc2
Writing library : Nandub build 1853/release

Video
ID : 0
Format : MPEG-4 Visual
Format profile : Advanced Simple@L5
Format settings, BVOP : No
Format settings, QPel : No
Format settings, GMC : No warppoints
Format settings, Matrix : Default (H.263)
Codec ID : XVID
Codec ID/Hint : XviD
Duration : 42mn 35s
Bit rate : 1 598 Kbps
Width : 720 pixels
Height : 400 pixels
Display aspect ratio : 16:9
Frame rate : 23.976 fps
Color space : YUV
Chroma subsampling : 4:2:0
Bit depth : 8 bits
Scan type : Progressive
Compression mode : Lossy
Bits/(Pixel*Frame) : 0.231
Stream size : 487 MiB (89%)
Writing library : XviD 1.2.1 (UTC 2008-12-04)

Audio
ID : 1
Format : MPEG Audio
Format version : Version 1
Format profile : Layer 3
Mode : Joint stereo
Mode extension : MS Stereo
Codec ID : 55
Codec ID/Hint : MP3
Duration : 42mn 35s
Bit rate mode : Variable
Bit rate : 192 Kbps
Channel(s) : 2 channels
Sampling rate : 48.0 KHz
Compression mode : Lossy
Stream size : 57.5 MiB (10%)
Alignment : Aligned on interleaves
Interleave, duration : 24 ms (0.58 video frame)
Interleave, preload duratio : 476 ms
Writing library : LAME3.97b
Encoding settings : -m j -V 4 -q 3 -lowpass 18.6 --abr 192

  • Остановить скачивание
  • Удалить старый торрент у себя из клиента (старые серии удалять не надо)
  • Скачать новый торрент и запустить его у себя в клиенте вместо старого, при этом указать клиенту путь в старую папку куда и должно происходить скачивание новых серий.

    Ваш клиент при этом должен произвести хеширование (проверку) старой папки (если не производит сам - помогите ему сделать это), и будет докачивать только те серии которых у вас ещё нет. Старые серии при этом не удаляются, а продолжают раздаваться!

    Eсли вы уже удалили старые серии, то предотвратить повторную закачку старых серий можно, отжав галочку в соответсвующих местах при запуске нового торрента. По возможности, желательно не удалять старые серии как можно дольше чтобы релизёр не столько продолжал раздавать старые серии, а смог сконцентрироваться на новых.
  • Оформление:Alex_EДобавлена 22 серия (16.05.2016)Просьба перекачать торрентСериал официально продлен на 8 сезон pb.wtf



    Скачать Дневники Вампира через торрент http://pic.kartinco.top/img/2014-11/07/5d8tbzjco4b56ldgcu9hbsms0.png Скачать фильм Дневники Вампира через торрент бесплантно в хорошем качестве Описание: Мистик Фоллс все еще защищен от любой магии, люди в нем наслаждаются безопасной и беззаботной жизнью. Однако сила заклятья не ... 9 10 36
    Info! Серебряная раздача, засчитывается только 50% скачанного.
    Торрент: Зарегистрирован [2016-05-16 07:42] · скачан: 128 раз
    Статус: √ проверено
    Размер: 8.29 GB
    Как cкачать? Как скачать Дневники Вампира через торрент | qTorrent



    Последний раз редактировалось: Alex_E (2016-05-16 07:42), всего редактировалось 25 раз(а)

    28-11-2019 20:33  

    Отключить всю рекламу на сайте

    10-10-2015 15:27 Дневники Вампира Скачать торрент  

    Без Нинки и смотреть смысла нет.pb.wtf



    13-10-2015 11:20 Дневники Вампира Скачать торрент  

    alexsmirnovnexus5 писал(а):

    Без Нинки и смотреть смысла нет.

    да без нее хоть больше будет на братьев взгляд направлен.а то надоели эти сопли про любовь и тдpb.wtf



    17-10-2015 22:44 Дневники Вампира Скачать торрент  

    Цитата:

    WEB-DLRip,MVO ] LostFilm.TV

    указание с доменным именем запрещеноpb.wtf



    12-12-2015 19:37 Дневники Вампира Скачать торрент  

    Да и без неё нормально.сериал норм.pb.wtf



    09-05-2016 08:38 Дневники Вампира Скачать торрент  

    14.05.2016 22 "Gods & Monsters"pb.wtf



      Дорогой пользователь! Огромная просьба, поблагодарите релизера, оцените раздачу и оставьте свои комментарий, если Вы скачали Дневники Вампира через торрент бесплатно! Внесите свою лепту в развитие PiratBit!
      Комментировать посты могут только пользователи прошедшие не сложную регистрацию
      Показать сообщения:    

      Дневники Вампира через торрент
      Скачать бесплатно Дневники Вампира
      Дневники Вампира скачать торрент
      Дневники Вампира смотреть онлайн
      Cкачать фильм Дневники Вампира бесплатно
      Дневники Вампира скачать торрент в хорошем качестве
      Дневники Вампира смотреть онлайн бесплатно в хорошем качестве


      Вы не можете начинать темы
      Вы не можете отвечать на сообщения
      Вы не можете редактировать свои сообщения
      Вы не можете удалять свои сообщения
      Вы не можете голосовать в опросах
      Вы не можете прикреплять файлы к сообщениям
      Вы можете скачивать файлы