Ссылка на приватное зеркало всего за 1$. Внимание количество ограничено!!!

OK

1+1

iTunes

мы

OK

1

WEB-DLRip

Джокер

Пифагор

Ведьмак / The Witcher сериал

Лицензия

ПШазам

ОК

Оно 2

iTunes

30
pack

Вам бонус

ВАЖНО

!!Акция!!

Alien_RageХит недели

RePack

Resident Evil 21

ИГРА 18+

pack

RePack

jed

RePack

fifa19

RePack

Assassins Creed: Odyssey

RePack

NEED FOR SPEED™ PAYBACK

4 сезон

9 сезон

Бесстыжие 9 сезон

Все сериалы

все сериалы на PB.wtf

RePack

FAR CRY 5
  

Бумажные города / Paper Towns (Джейк Шрейер) [2015 г., драма, мелодрама, детектив, HDRip, Дубляж "iTunes"] pb.wtf

Бумажные города через торрент pb.wtf

Размер: 2.08 GB | Добавлен: 4 года 3 мес. назад | Торрент скачан:167 раз
Скачать  

10-10-2015 18:30 Бумажные города Скачать торрент  

Бумажные города / Paper Towns
Год выпуска: 2015
Страна: США / Fox 2000 Pictures, Temple Hill Entertainment
Жанр: драма, мелодрама, детектив
Продолжительность: 01:49:05
Перевод: Дубляж (iTunes)

Режиссер: Джейк Шрейер



В ролях: Нат Вулф, Кара Делевинь, Остин Абрамс, Джастис Смит, Холстон Сейдж, Жасмин Сабино, Кара Буоно, Джозиа Серио, Ханна Аллигуд, Мэг Кросби

Описание: Выпускник школы Кью Джейкобсен с детских лет тайно влюблен в свою прекрасную и дерзкую соседку Марго Рот Шпигельманн. Поэтому, когда однажды ночью она приглашает его принять участие в «карательной операции» против ее обидчиков, он соглашается. Но, придя в школу после их ночного приключения, Кью узнает, что Марго исчезла… оставив для него лишь таинственные послания, которые он должен разгадать, чтобы найти девушку.

Качество: HDRip
Формат: AVI
Видео кодек: DivX
Аудио кодек: AC3
Видео: 720x304 (2.37:1), 23.976 fps, DivX Codec 4.x ~2342 kbps avg, 0.45 bit/pixel
Аудио: 48 kHz, AC3 Dolby Digital, 3/2 (L,C,R,l,r) + LFE ch, ~384 kbps

General
Complete name : F:\кино\Бумажные города.2015.HDRip.avi
Format : AVI
Format/Info : Audio Video Interleave
Format profile : OpenDML
File size : 2.08 GiB
Duration : 1h 49mn
Overall bit rate : 2 733 Kbps
Writing application : VirtualDubMod 1.5.10.3 | www.virtualdub-fr.org || (build 2550/release)
Writing library : VirtualDubMod build 2550/release

Video
ID : 0
Format : MPEG-4 Visual
Format profile : Advanced Simple@L5
Format settings, BVOP : 2
Format settings, QPel : No
Format settings, GMC : No warppoints
Format settings, Matrix : Default (H.263)
Codec ID : DIVX
Codec ID/Info : Project Mayo
Codec ID/Hint : DivX 4
Duration : 1h 49mn
Bit rate : 2 337 Kbps
Width : 720 pixels
Height : 304 pixels
Display aspect ratio : 2.35:1
Frame rate : 23.976 fps
Color space : YUV
Chroma subsampling : 4:2:0
Bit depth : 8 bits
Scan type : Progressive
Compression mode : Lossy
Bits/(Pixel*Frame) : 0.445
Stream size : 1.78 GiB (86%)
Writing library : XviD 1.2.1 (UTC 2008-12-04)

Audio
ID : 1
Format : AC-3
Format/Info : Audio Coding 3
Mode extension : CM (complete main)
Format settings, Endianness : Big
Codec ID : 2000
Duration : 1h 49mn
Bit rate mode : Constant
Bit rate : 384 Kbps
Channel(s) : 6 channels
Channel positions : Front: L C R, Side: L R, LFE
Sampling rate : 48.0 KHz
Bit depth : 16 bits
Compression mode : Lossy
Stream size : 300 MiB (14%)
Alignment : Split accross interleaves
Interleave, duration : 42 ms (1.00 video frame)
Interleave, preload duration : 500 ms

pb.wtf



Скачать Бумажные города через торрент http://pic1.kartinco.top/images/10/u69r2.jpg Скачать фильм Бумажные города через торрент бесплантно в хорошем качестве Описание: Выпускник школы Кью Джейкобсен с детских лет тайно влюблен в свою прекрасную и дерзкую соседку Марго Рот Шпигельманн. Поэтому, ... 8 10 5
Торрент: Зарегистрирован [2015-10-10 18:30] · скачан: 167 раз
Статус: √ проверено
Размер: 2.08 GB
Как cкачать? Как скачать Бумажные города через торрент | qTorrent

% Раздел Тема Автор DL S | L
Фильмы [HD 720p, 1080p] (Хороший звук DUB, MVO) [ 4.09 GB ] Бумажные города / Paper towns [2015 BDRip 1080p HEVC ()] Мичман37 Скачать
1 | 0
Фильмы [HD 720p, 1080p] (Хороший звук DUB, MVO) [ 7.76 GB ] Бумажные города / Paper Towns [2015 BDRip 1080p от еnvy / NNNB] DUB еnvy Скачать
11 | 0
Фильмы [HD 720p, 1080p] (Хороший звук DUB, MVO) [ 9.7 GB ] Бумажные города / Paper Towns [2015 BDRip 1080p] - [] -Lexx- Скачать
1 | 0
Фильмы 2015 [DVDrip, WEB-DLRip, HDrip] [ 2.18 GB ] Бумажные города / Paper Towns [2015 BDRip от HQCLUB / ] Ворон Скачать
1 | 0
Фильмы 2015 [DVDrip, WEB-DLRip, HDrip] [ 745 MB ] Бумажные города / Paper Towns [2015 BDRip-AVC от sokol_ok] DUB sokol_ok Скачать
2 | 0
Фильмы 2015 [DVDrip, WEB-DLRip, HDrip] [ 1.46 GB ] Бумажные города / Paper Towns [2015 BDRip-AVC от sokol_ok] DUB sokol_ok Скачать
2 | 0
Фильмы 2015 [DVDrip, WEB-DLRip, HDrip] [ 2.19 GB ] Бумажные города / Paper Towns [2015 BDRip-AVC от sokol_ok] DUB sokol_ok Скачать
2 | 0

28-11-2019 20:33  

Отключить всю рекламу на сайте

11-10-2015 12:00 Бумажные города Скачать торрент  

Тупизм и нелепицаpb.wtf



11-10-2015 19:22 Бумажные города Скачать торрент  

mitsumik писал(а):

Тупизм и нелепица

американская "правильная" сказкаpb.wtf



12-10-2015 17:25 Бумажные города Скачать торрент  

:jest3:pb.wtf



    Дорогой пользователь! Огромная просьба, поблагодарите релизера, оцените раздачу и оставьте свои комментарий, если Вы скачали Бумажные города через торрент бесплатно! Внесите свою лепту в развитие PiratBit!
    Комментировать посты могут только пользователи прошедшие не сложную регистрацию
    Показать сообщения:    

    Бумажные города через торрент
    Скачать бесплатно Бумажные города
    Бумажные города скачать торрент
    Бумажные города смотреть онлайн
    Cкачать фильм Бумажные города бесплатно
    Бумажные города скачать торрент в хорошем качестве
    Бумажные города смотреть онлайн бесплатно в хорошем качестве


    Вы не можете начинать темы
    Вы не можете отвечать на сообщения
    Вы не можете редактировать свои сообщения
    Вы не можете удалять свои сообщения
    Вы не можете голосовать в опросах
    Вы не можете прикреплять файлы к сообщениям
    Вы можете скачивать файлы