новый адрес
Ссылка на приватное зеркало всего за 1$. Внимание количество ограничено!!!

iTunes

1+1

iTunes

мы

iTunes

1

iTunes

Чернобыль

iTunes

Ральф против интернета

Лицензия

ПШазам

Лицензия

Оно 2

Лицензия

30
pack

Вам бонус

ВАЖНО

!!Акция!!

Alien_RageХит недели

RePack

Resident Evil 21

ИГРА 18+

pack

RePack

jed

!!Акция!!

Alien_Rage

RePack

fifa19

RePack

Assassins Creed: Odyssey

RePack

NEED FOR SPEED™ PAYBACK

3 сезон

9 сезон

Бесстыжие 9 сезон

Все сериалы

все сериалы на PB.wtf

RePack

FAR CRY 5
Ребята, катастрофически не хватает 1900р. для оплаты серверов за Октябрь (всвязи с блокировками трафик упал в 3 раза), 1-2р., выручайте.
  

Берлин зовет / Berlin Calling (Ханнес Штер) [2008 г., драма, комедия, музыкальный, BDRip 720p] VO (Rider) pb.wtf

Берлин зовет через торрент pb.wtf

Размер: 8.19 GB | Добавлен: 4 года 1 мес. назад | Торрент скачан:29 раз
Скачать  

10-10-2015 22:21 Берлин зовет Скачать торрент  

Берлин зовет / Berlin CallingAn extraordinary journey from WWII to the punk era and back again.Год выпуска: 2008
Страна: Германия
Жанр: драма, комедия, музыкальный
Продолжительность: 01:49:32
Перевод: Любительский одноголосый от Rider (Александр Райдер)
Субтитры: Русские, Английские

Режиссер: Ханнес Штер
Продюссер: Карстен Аурих
Сценарий: Ханнес Штер




Премьера в мире: 2 октября 2008










В ролях: Пауль Калькбреннер, Рита Лендьела, Коринна Харфух, Араба Уолтон, Питер Шнайдер, Рольф Петер Каль, Хенриетта Мюллер, Удо Крошвальд, Меган Гэй, Макс Мауфф




Описание: Популярный немецкий клубный музыкант DJ Ickarus с нетерпением ждёт выхода своей новой пластинки и турне в её поддержку. Он не может и предположить, что радость от возможности посетить лучшие ночные клубы мира вскоре будет омрачена изменой подруги. Что его душевные терзания усугубит наркотическое пристрастие, а успешно начавшееся турне ди-джея окончится в психиатрическом отделении Берлинского госпиталя.




Качество: BDRip 720p
Формат: MKV
Видео кодек: AVC
Аудио кодек: AC3, DTS
Видео: 1280x692; 8750 kbps; 24 fps; 0,412 bpp
Аудио#1: русский / AC3 / 448 kbps / 48 kHz / 6 ch
Аудио#2: немецкий / DTS / 1510 kbps / 48 kHz /6 ch
Видеоряд: by gjiAm

Код:

Общее
Уникальный идентификатор                 : 232759363306439030882134737861572697864 (0xAF1BD2A095D8F35A802BA420FD1E1F08)
Полное имя                               : H:\Berlin.Calling.2008.BDRip720p.mkv
Формат                                   : Matroska
Версия формата                           : Version 4 / Version 2
Размер файла                             : 8,19 Гбайт
Продолжительность                        : 1 ч. 49 м.
Общий поток                              : 10,7 Мбит/сек
Дата кодирования                         : UTC 2015-10-10 21:07:34
Программа кодирования                    : mkvmerge v8.4.0 ('A better way to fly') 64bit
Библиотека кодирования                   : libebml v1.3.1 + libmatroska v1.4.2
DURATION                                 : 01:49:32.416000000
NUMBER_OF_FRAMES                         : 205388
NUMBER_OF_BYTES                          : 368055296
_STATISTICS_WRITING_APP                  : mkvmerge v8.4.0 ('A better way to fly') 64bit
_STATISTICS_WRITING_DATE_UTC             : 2015-10-10 21:07:34
_STATISTICS_TAGS                         : BPS DURATION NUMBER_OF_FRAMES NUMBER_OF_BYTES

Видео
Идентификатор                            : 1
Формат                                   : AVC
Формат/Информация                        : Advanced Video Codec
Профиль формата                          : High@L4.1
Параметр CABAC формата                   : Да
Параметр ReFrames формата                : 8 кадров
Идентификатор кодека                     : V_MPEG4/ISO/AVC
Продолжительность                        : 1 ч. 49 м.
Битрейт                                  : 8750 Кбит/сек
Ширина                                   : 1280 пикселей
Высота                                   : 692 пикселя
Соотношение сторон                       : 1,85:1
Режим частоты кадров                     : Постоянный
Частота кадров                           : 24,000 кадра/сек
Цветовое пространство                    : YUV
Субдискретизация насыщенности            : 4:2:0
Битовая глубина                          : 8 бит
Тип развёртки                            : Прогрессивная
Бит/(Пиксели*Кадры)                      : 0.412
Размер потока                            : 6,53 Гбайт (80%)
Библиотека кодирования                   : x264 core 110 r1804 e89c4cf
Настройки программы                      : cabac=1 / ref=8 / deblock=1:-2:-1 / analyse=0x3:0x113 / me=umh / subme=10 / psy=1 / psy_rd=1.00:0.10 / mixed_ref=1 / me_range=32 / chroma_me=1 / trellis=2 / 8x8dct=1 / cqm=0 / deadzone=21,11 / fast_pskip=0 / chroma_qp_offset=-3 / threads=12 / sliced_threads=0 / nr=0 / decimate=0 / interlaced=0 / constrained_intra=0 / bframes=10 / b_pyramid=2 / b_adapt=2 / b_bias=0 / direct=3 / weightb=1 / open_gop=0 / weightp=2 / keyint=250 / keyint_min=24 / scenecut=40 / intra_refresh=0 / rc_lookahead=40 / rc=2pass / mbtree=0 / bitrate=8750 / ratetol=1.0 / qcomp=0.60 / qpmin=0 / qpmax=51 / qpstep=4 / cplxblur=20.0 / qblur=0.5 / vbv_maxrate=50000 / vbv_bufsize=62500 / ip_ratio=1.40 / pb_ratio=1.30 / aq=1:0.90 / nal_hrd=none
Язык                                     : German
Default                                  : Да
Forced                                   : Нет
DURATION                                 : 01:49:32.125000000
NUMBER_OF_FRAMES                         : 157731
NUMBER_OF_BYTES                          : 7187097981
_STATISTICS_WRITING_APP                  : mkvmerge v8.4.0 ('A better way to fly') 64bit
_STATISTICS_WRITING_DATE_UTC             : 2015-10-10 21:07:34
_STATISTICS_TAGS                         : BPS DURATION NUMBER_OF_FRAMES NUMBER_OF_BYTES

Аудио #1
Идентификатор                            : 2
Формат                                   : AC-3
Формат/Информация                        : Audio Coding 3
Расширение режима                        : CM (complete main)
Параметр Endianness формата              : Big
Идентификатор кодека                     : A_AC3
Продолжительность                        : 1 ч. 49 м.
Вид битрейта                             : Постоянный
Битрейт                                  : 448 Кбит/сек
Каналы                                   : 6 каналов
Расположение каналов                     : Front: L C R, Side: L R, LFE
Частота                                  : 48,0 КГц
Метод сжатия                             : С потерями
Размер потока                            : 351 Мбайт (4%)
Заголовок                                : VO Rider (Александр Райдер)
Язык                                     : Russian
Default                                  : Да
Forced                                   : Нет

Аудио #2
Идентификатор                            : 3
Формат                                   : DTS
Формат/Информация                        : Digital Theater Systems
Режим                                    : 16
Параметр Endianness формата              : Big
Идентификатор кодека                     : A_DTS
Продолжительность                        : 1 ч. 49 м.
Вид битрейта                             : Постоянный
Битрейт                                  : 1509 Кбит/сек
Каналы                                   : 6 каналов
Расположение каналов                     : Front: L C R, Side: L R, LFE
Частота                                  : 48,0 КГц
Битовая глубина                          : 24 бит
Метод сжатия                             : С потерями
Размер потока                            : 1,15 Гбайт (14%)
Заголовок                                : Orginal
Язык                                     : German
Default                                  : Нет
Forced                                   : Нет

Текст #1
Идентификатор                            : 4
Формат                                   : UTF-8
Идентификатор кодека                     : S_TEXT/UTF8
Идентификатор кодека/Информация          : UTF-8 Plain Text
Заголовок                                : nevandr
Язык                                     : Russian
Default                                  : Нет
Forced                                   : Нет

Текст #2
Идентификатор                            : 5
Формат                                   : UTF-8
Идентификатор кодека                     : S_TEXT/UTF8
Идентификатор кодека/Информация          : UTF-8 Plain Text
Язык                                     : English
Default                                  : Нет
Forced                                   : Нет

Меню
00:00:00.000                             : en:00:00:00.000
00:23:03.917                             : en:00:23:03.917
00:39:04.458                             : en:00:39:04.458
00:55:02.333                             : en:00:55:02.333
01:13:32.583                             : en:01:13:32.583
01:31:41.458                             : en:01:31:41.458


Скриншоты

pb.wtf



Скачать Берлин зовет через торрент http://pic1.kartinco.top/images/10/g6cur.jpg Скачать фильм Берлин зовет через торрент бесплантно в хорошем качестве Описание: Популярный немецкий клубный музыкант DJ Ickarus с нетерпением ждёт выхода своей новой пластинки и турне в её поддержку. Он не ... 10 10 2
Торрент: Зарегистрирован [2015-10-10 22:21] · скачан: 29 раз
Статус: √ проверено
Размер: 8.19 GB
Как cкачать? Как скачать Берлин зовет через торрент | qTorrent

% Раздел Тема Автор DL S | L
R.G. Resident & PiratVoice - Фильмы, Видео [ 12.12 GB ] Берлин зовет / Berlin Calling [2008 музыка 1080p от еnvy / NNNB] Любительский PiratVoice еnvy Скачать
3 | 0
R.G. Resident & PiratVoice - Фильмы, Видео [ 7.48 GB ] Берлин зовет / Berlin Calling [2008 музыка 720p от еnvy / NNNB] Любительский PiratVoice еnvy Скачать
1 | 0

28-11-2019 20:33  

Отключить всю рекламу на сайте

    Дорогой пользователь! Огромная просьба, поблагодарите релизера, оцените раздачу и оставьте свои комментарий, если Вы скачали Берлин зовет через торрент бесплатно! Внесите свою лепту в развитие PiratBit!
    Комментировать посты могут только пользователи прошедшие не сложную регистрацию
    Показать сообщения:    

    Берлин зовет через торрент
    Скачать бесплатно Берлин зовет
    Берлин зовет скачать торрент
    Берлин зовет смотреть онлайн
    Cкачать фильм Берлин зовет бесплатно
    Берлин зовет скачать торрент в хорошем качестве
    Берлин зовет смотреть онлайн бесплатно в хорошем качестве


    Вы не можете начинать темы
    Вы не можете отвечать на сообщения
    Вы не можете редактировать свои сообщения
    Вы не можете удалять свои сообщения
    Вы не можете голосовать в опросах
    Вы не можете прикреплять файлы к сообщениям
    Вы можете скачивать файлы