MEGA SALE -75% Borderlands 3 Super Deluxe всего за 550р. 180 руб. (супер цена). Внимание количество ограничено!!!

iTunes

1+1

iTunes

мы

iTunes

1

iTunes

Чернобыль

iTunes

Ральф против интернета

Лицензия

ПШазам

Лицензия

Игра престолов

Лицензия

30
pack

ВАЖНО

!!Акция!!

Alien_RageХит недели

RePack

Resident Evil 21

ИГРА 18+

pack

RePack

Metro:Exodus

!!Акция!!

Alien_Rage

RePack

fifa19

RePack

Assassins Creed: Odyssey

RePack

NEED FOR SPEED™ PAYBACK

3 сезон

9 сезон

Бесстыжие 9 сезон

Все сериалы

все сериалы на PB.wtf

RePack

FAR CRY 5
Ребята, катастрофически не хватает 1900р. для оплаты серверов за АВГУСТ (всвязи с блокировками трафик упал в 3 раза), 1-2р., выручайте.
  

Без компромиссов / Fei hu (Гордон Чан / Gordon Chan) [1996, Гонконг, боевик, драма, DVDRip от AVP Studio] MVO pb.wtf

Без компромиссов через торрент pb.wtf

Раздают: 1 [ 0 KB/s ]
Размер: 745 MB | Добавлен: 4 года назад | Торрент скачан:9 раз
Скачать  

11-10-2015 07:01 Без компромиссов Скачать торрент  

Без компромиссов
Fei hu

Страна: Гонконг
Производство: Media Asia Group Ltd., People's Productions Limited

Жанр: боевик, драма
Год выпуска: 1996
Продолжительность: 01:26:24

Перевод: Профессиональный (многоголосый, закадровый)
Оригинальная аудиодорожка: нет
Cубтитры: нет

Режиссер: Гордон Чан / Gordon Chan

В ролях:
Майкл Вонг, Гиги Люн, Дамиан Лау, Алекс Чунг, Уинстон Эллис, Ричард Геддес, Ричард Гросс, Джо Кук, Джо Чунг Мэн Квонг...

Описание:
Майк Стоун — опытнейший солдат, возглавляющий специальное подразделение по борьбе с преступностью. Но его отряд состоит из совсем еще неопытных и необстрелянных юнцов, которые не в силах справится с бесчинствующей в городе группировкой, занимающейся контрабандой наркотиков. Вся она состоит из бывших американских спецназовцев, а командует ими хитрый и жестокий убийца. На Стоуна возложена тяжелейшая задача — в кратчайшие сроки подготовить свой отряд для решающей схватки с бандитами. Он должен исключить даже малейшую возможность просчета, ведь бой пойдет не на жизнь, а на смерть…

Исходник: DVD5 R5
Тип релиза: DVDRip
Контейнер: AVI

Видео: 704x400 (16:9), 25 fps, XviD ~ 1069 kbps avg, 0.152 bit/pixel
Аудио: 48 kHz, MP3 2,0, 128 kbps

Раздача от:
Общее
Полное имя : Bez.kompromissov.1996.DVDRip-745_[New-team]_by_AVP_Studio.avi
Формат : AVI
Формат/Информация : Audio Video Interleave
Размер файла : 745 Мбайт
Продолжительность : 1 ч. 26 м.
Общий поток : 1206 Кбит/сек
Программа кодирования : VirtualDubModRus 1.5.10.2 (build 2542/release)
Библиотека кодирования : VirtualDubMod build 2542/release

Видео
Идентификатор : 0
Формат : MPEG-4 Visual
Профиль формата : Advanced Simple@L5
Параметр BVOP формата : 1
Параметр QPel формата : Нет
Параметр GMC формата : Без точки перехода
Параметр матрицы формата : Выборочная
Идентификатор кодека : XVID
Идентификатор кодека/Подсказка : XviD
Продолжительность : 1 ч. 26 м.
Битрейт : 1069 Кбит/сек
Ширина : 704 пикселя
Высота : 400 пикселей
Соотношение сторон : 16:9
Частота кадров : 25,000 кадров/сек
Цветовое пространство : YUV
Субдискретизация насыщенности : 4:2:0
Битовая глубина : 8 бит
Тип развёртки : Прогрессивная
Метод сжатия : С потерями
Бит/(Пиксели*Кадры) : 0.152
Размер потока : 660 Мбайт (89%)
Библиотека кодирования : XviD 73

Аудио
Идентификатор : 1
Формат : MPEG Audio
Версия формата : Version 1
Профиль формата : Layer 3
Идентификатор кодека : 55
Идентификатор кодека/Подсказка : MP3
Продолжительность : 1 ч. 26 м.
Вид битрейта : Постоянный
Битрейт : 128 Кбит/сек
Каналы : 2 канала
Частота : 48,0 КГц
Метод сжатия : С потерями
Размер потока : 79,1 Мбайт (11%)
Выравнивание : Соединение по промежуткам
Продолжительность промежутка : 40 мс. (1,00 видеокадр)
Время предзагрузки промежутка : 504 мс.
Библиотека кодирования : LAME3.99r
Настройки программы : -m s -V 4 -q 2 -lowpass 17 -b 128
pb.wtf



Скачать Без компромиссов через торрент http://s001.youpic.su/pictures/1401652800/e2ff4c2704bda5e8c7bd5729951cb24a.png Скачать фильм Без компромиссов через торрент бесплантно в хорошем качестве Описание:Майк Стоун — опытнейший солдат, возглавляющий специальное подразделение по борьбе с преступностью. Но его отряд состоит из совсем ... 10 10 1
Info! Золотая раздача, скачанное не засчитывается.
Торрент: Зарегистрирован [2015-10-11 07:01] · скачан: 9 раз
Статус: √ проверено
Размер: 745 MB
Как cкачать? Как скачать Без компромиссов через торрент | qTorrent

% Раздел Тема Автор DL S | L
Фильмы до 2000 г. [ 1.45 GB ] Без компромиссов / Fei hu [1996 Гонконг DVDRip-AVC от AVP Studio] MVO AVP Studio Скачать
1 | 0
Фильмы до 2000 г. [ 1.46 GB ] Без компромиссов / Fei hu [1996 Гонконг DVDRip от AVP Studio] MVO AVP Studio Скачать
2 | 0


>> Регистрируемся здесь <<






Отзывы и комментарии о схеме читаем и пишем здесь: ---> Отзывы и комментарии о схеме

Новые благодарочки в телеграм довольных пользователей:
скриншот   скриншот   скриншот   скриншот   скриншот
    Дорогой пользователь! Огромная просьба, поблагодарите релизера, оцените раздачу и оставьте свои комментарий, если Вы скачали Без компромиссов через торрент бесплатно! Внесите свою лепту в развитие PiratBit!
    Комментировать посты могут только пользователи прошедшие не сложную регистрацию
    Показать сообщения:    

    Без компромиссов через торрент
    Скачать бесплатно Без компромиссов
    Без компромиссов скачать торрент
    Без компромиссов смотреть онлайн
    Cкачать фильм Без компромиссов бесплатно
    Без компромиссов скачать торрент в хорошем качестве
    Без компромиссов смотреть онлайн бесплатно в хорошем качестве


    Вы не можете начинать темы
    Вы не можете отвечать на сообщения
    Вы не можете редактировать свои сообщения
    Вы не можете удалять свои сообщения
    Вы не можете голосовать в опросах
    Вы не можете прикреплять файлы к сообщениям
    Вы можете скачивать файлы