2 сезон

iTunes

MVO

1

2 сезон

iTunes

iTunes

1 сезон

RePack

30

Новинка

ВАЖНО

ИГРА 18+

pack

RePack

MK11
pack

Легкие деньги

RePack

jed

RePack

fifa19

RePack

RDR2

RePack

NEED FOR SPEED™ PAYBACK

4 сезон

9 сезон

Бесстыжие 9 сезон

Все сериалы

все сериалы на PB.wtf

RePack

FAR CRY 5

Anonymous, доброе утро, мы не успеваем собрать деньги на оплату серверов за декабрь и январь, помогите нам пожалуйста в это трудное время. В качестве благодарности мы отключим Вам всю рекламу на сайте (укажите свой ник в строку Ваше имя)!

×
  
Magnet ссылка

Желания женщин / Women Desires Part.5 + Bonus [2015 г., Adult erotic music clips, WEB-DL 1080p, Оригинальный] pb.wtf

Желания женщин через торрент pb.wtf

Размер: 6.79 GB | Добавлен: 5 лет 3 мес. назад | Торрент скачан:195 раз
Скачать  

11-10-2015 09:13 Желания женщин Скачать торрент  

Желания женщин / Women Desires Part.5 + Bonus
Год выпуска: 2015
Страна: All World
Жанр: Adult erotic music clips
Продолжительность: 04:36:09
Перевод: Оригинальный

Описание: Красивые музыкальные клипы с красивыми девушками...(часть 5) + Bonus
01. The Super girls of Teaseum [03:17]
02. Fitness beauty - Staying fit [02:58]
03. JLo vs PetaJ - Booty ft. Iggy Azalea [04:06]
04. Nicole Vaunt - Sunday Strip [04:10]
05. 2548 Pictures in Art [03:31]
06. Degustia [03:00]
07. The Super Sexy Jenny Marie [03:11]
08. A Wonderful Sexy Girl [03:19]
09. Pocahontas [01:19]
10. Sam Aotaki - Entice [03:18]
11. The Tawaifs - Dance Of The Tawaif [12:51]
12. Melissa - Erotic Dance [04:02]
13. Natya Shatra - Bollywood Blowjob [04:38]
14. Atrium [03:00]
15. Caress 20 (Farewell Sequence) [03:07]
16. Caress 21 (Tattoo Sequence) [03:57]
17. Caress 23 (Sequence) [06:07]
18. Tubbea in Black satin [05:33]
19. Leanna Decker - Cybergirl 2012 [03:00]
20. Beth Bennett - Erotic [04:38]
21. Hot babes time [04:55]
22. Feu Primordial - Conceptual Fine [02:41]
23. Leanna Decker - Halloween Red Hot Riding Hood [05:36]
24. Dread lock Girl in the Grass [02:13]
25. Cloud Fantasy [03:54]
26. Alise Namat [09:49]
27. Life After Work... A Sensual Evening with Roshie [12:51]
28. REDY [03:00]
29. Dreadlocks Girl chilling on the Couch [04:11]
30. Steamy Chandler - South [09:31]
31. Anetta Keys [03:15]
32. Didi - Nina in Art [09:04]
33. Jannie Phan - Top Notch [04:06]
34. Theresa Manchester - Looks Like Rain [06:20]
35. Enoli - Cherokee People [02:55]
36. MAKJ vs Cold Blank vs Chris Lake - I Popped a Molly [02:07]
37. NEXT in Nude Performance Art, Dance [03:28]
Bonus
38. SweetGirls videomix (vol 1) [29:37]
39. SweetGirls videomix (vol 2) [42:04]
40. SweetGirls videomix (vol 3) [31:05]
Качество: WEB-DL 1080p
Формат: MP4
Видео кодек: AVC
Аудио кодек: AAC
Видео: AVC, 1280x720,1920x1080 (16:9), 30.000 fps, 2 500 Kbps (0.090 bit/pixel)
Аудио#1: AAC LC, 48.0 KHz, 2 ch, 147-256 Kbps, VBR(CBR)
скриншот   скриншот   скриншот   скриншот   скриншот   скриншот  
скриншот   скриншот   скриншот   скриншот   скриншот   скриншот  

Общее
Полное имя : C:\Раздача\Клипы\Women Desires Part.5 +Bonus(2015)\02. Fitness beauty - Staying fit.mp4
Формат : MPEG-4
Профиль формата : Base Media / Version 2
Идентификатор кодека : mp42
Размер файла : 55,8 Мбайт
Продолжительность : 2 м. 58 с.
Режим общего битрейта : Переменный
Общий поток : 2618 Кбит/сек
Дата кодирования : UTC 2015-07-25 18:17:30
Дата пометки : UTC 2015-07-25 18:17:30

Видео
Идентификатор : 1
Формат : AVC
Формат/Информация : Advanced Video Codec
Профиль формата : High@L3.1
Параметр CABAC формата : Да
Параметр ReFrames формата : 5 кадров
Идентификатор кодека : avc1
Идентификатор кодека/Информация : Advanced Video Coding
Продолжительность : 2 м. 58 с.
Битрейт : 2500 Кбит/сек
Ширина : 1280 пикселей
Высота : 720 пикселей
Соотношение сторон : 16:9
Режим частоты кадров : Постоянный
Частота кадров : 30,000 кадров/сек
Цветовое пространство : YUV
Субдискретизация насыщенности : 4:2:0
Битовая глубина : 8 бит
Тип развёртки : Прогрессивная
Бит/(Пиксели*Кадры) : 0.090
Размер потока : 52,6 Мбайт (94%)
Библиотека кодирования : x264 core 146 r11M 121396c
Настройки программы : cabac=1 / ref=5 / deblock=1:0:0 / analyse=0x3:0x113 / me=umh / subme=8 / psy=1 / psy_rd=1.00:0.00 / mixed_ref=1 / me_range=16 / chroma_me=1 / trellis=1 / 8x8dct=1 / cqm=0 / deadzone=21,11 / fast_pskip=1 / chroma_qp_offset=-2 / threads=84 / lookahead_threads=5 / sliced_threads=0 / nr=0 / decimate=1 / interlaced=0 / bluray_compat=0 / stitchable=1 / constrained_intra=0 / bframes=3 / b_pyramid=2 / b_adapt=2 / b_bias=0 / direct=3 / weightb=1 / open_gop=0 / weightp=2 / keyint=infinite / keyint_min=30 / scenecut=40 / intra_refresh=0 / rc_lookahead=50 / rc=2pass / mbtree=1 / bitrate=2500 / ratetol=1.0 / qcomp=0.60 / qpmin=5 / qpmax=69 / qpstep=4 / cplxblur=20.0 / qblur=0.5 / vbv_maxrate=2750 / vbv_bufsize=7500 / nal_hrd=none / filler=0 / ip_ratio=1.40 / aq=1:1.00
Дата кодирования : UTC 2015-07-25 18:17:30
Дата пометки : UTC 2015-07-25 18:17:30
Основные цвета : BT.709
Характеристики трансфера : BT.709
Коэффициенты матрицы : BT.709

Аудио
Идентификатор : 2
Формат : AAC
Формат/Информация : Advanced Audio Codec
Профиль формата : LC
Идентификатор кодека : 40
Продолжительность : 2 м. 58 с.
Вид битрейта : Переменный
Битрейт : 147 Кбит/сек
Каналы : 2 канала
Расположение каналов : Front: L R
Частота : 48,0 КГц
Метод сжатия : С потерями
Размер потока : 3,13 Мбайт (6%)
Дата кодирования : UTC 2015-07-25 18:17:30
Дата пометки : UTC 2015-07-25 18:17:30

Общее
Полное имя : C:\Раздача\Клипы\Women Desires Part.5 +Bonus(2015)\14. Atrium.mp4
Формат : MPEG-4
Профиль формата : Base Media / Version 2
Идентификатор кодека : mp42
Размер файла : 102 Мбайт
Продолжительность : 3 м. 0 с.
Режим общего битрейта : Переменный
Общий поток : 4742 Кбит/сек
Дата кодирования : UTC 2015-09-27 21:37:48
Дата пометки : UTC 2015-09-27 21:37:48

Видео
Идентификатор : 1
Формат : AVC
Формат/Информация : Advanced Video Codec
Профиль формата : High@L4.0
Параметр CABAC формата : Да
Параметр ReFrames формата : 4 кадра
Идентификатор кодека : avc1
Идентификатор кодека/Информация : Advanced Video Coding
Продолжительность : 3 м. 0 с.
Битрейт : 4500 Кбит/сек
Ширина : 1920 пикселей
Высота : 1080 пикселей
Соотношение сторон : 16:9
Режим частоты кадров : Постоянный
Частота кадров : 30,000 кадров/сек
Цветовое пространство : YUV
Субдискретизация насыщенности : 4:2:0
Битовая глубина : 8 бит
Тип развёртки : Прогрессивная
Бит/(Пиксели*Кадры) : 0.072
Размер потока : 96,2 Мбайт (95%)
Библиотека кодирования : x264 core 148 r11 73ae2d1
Настройки программы : cabac=1 / ref=4 / deblock=1:0:0 / analyse=0x3:0x113 / me=umh / subme=8 / psy=1 / psy_rd=1.00:0.00 / mixed_ref=1 / me_range=16 / chroma_me=1 / trellis=1 / 8x8dct=1 / cqm=0 / deadzone=21,11 / fast_pskip=1 / chroma_qp_offset=-2 / threads=34 / lookahead_threads=5 / sliced_threads=0 / nr=0 / decimate=1 / interlaced=0 / bluray_compat=0 / stitchable=1 / constrained_intra=0 / bframes=3 / b_pyramid=2 / b_adapt=2 / b_bias=0 / direct=3 / weightb=1 / open_gop=0 / weightp=2 / keyint=infinite / keyint_min=30 / scenecut=40 / intra_refresh=0 / rc_lookahead=50 / rc=2pass / mbtree=1 / bitrate=4500 / ratetol=1.0 / qcomp=0.60 / qpmin=5 / qpmax=69 / qpstep=4 / cplxblur=20.0 / qblur=0.5 / vbv_maxrate=4950 / vbv_bufsize=13500 / nal_hrd=none / filler=0 / ip_ratio=1.40 / aq=1:1.00
Дата кодирования : UTC 2015-09-27 21:37:48
Дата пометки : UTC 2015-09-27 21:37:48
Основные цвета : BT.709
Характеристики трансфера : BT.709
Коэффициенты матрицы : BT.709

Аудио
Идентификатор : 2
Формат : AAC
Формат/Информация : Advanced Audio Codec
Профиль формата : LC
Идентификатор кодека : 40
Продолжительность : 3 м. 0 с.
Вид битрейта : Переменный
Битрейт : 256 Кбит/сек
Каналы : 2 канала
Расположение каналов : Front: L R
Частота : 48,0 КГц
Метод сжатия : С потерями
Размер потока : 5,50 Мбайт (5%)
Дата кодирования : UTC 2015-09-27 21:37:48
Дата пометки : UTC 2015-09-27 21:37:48

pb.wtf



Скачать Желания женщин через торрент http://pic.kartinco.top/images/11/zjg24.jpg Скачать фильм Желания женщин через торрент бесплантно в хорошем качестве Описание: Красивые музыкальные клипы с красивыми девушками...(часть 5) + Bonus The Super girls of Teaseum [03:17] Fitness beauty - ... 9.4 10 20
Info! Золотая раздача, скачанное не засчитывается.
Торрент: Зарегистрирован [2015-10-11 09:13] · скачан: 195 раз
Статус: √ проверено
Размер: 6.79 GB
Как cкачать? Как скачать Желания женщин через торрент | UTorrent

28-11-2019 20:33  

Отключить всю рекламу на сайте

16-10-2015 07:14 Желания женщин Скачать торрент  

Классные клипачки!!! Респект раздающему pb.wtf



    Дорогой пользователь! Огромная просьба, поблагодарите релизера, оцените раздачу и оставьте свои комментарий, если Вы скачали Желания женщин через торрент бесплатно! Внесите свою лепту в развитие PiratBit!
    Комментировать посты могут только пользователи прошедшие не сложную регистрацию
    Показать сообщения:    

    Желания женщин через торрент
    Скачать бесплатно Желания женщин
    Желания женщин скачать торрент
    Желания женщин смотреть онлайн
    Cкачать фильм Желания женщин бесплатно
    Желания женщин скачать торрент в хорошем качестве
    Желания женщин смотреть онлайн бесплатно в хорошем качестве


    Вы не можете начинать темы
    Вы не можете отвечать на сообщения
    Вы не можете редактировать свои сообщения
    Вы не можете удалять свои сообщения
    Вы не можете голосовать в опросах
    Вы не можете прикреплять файлы к сообщениям
    Вы можете скачивать файлы