Ссылка на приватное зеркало нашего сайта всего за 1$. Внимание количество ограничено!!!

2 сезон

iTunes

1 сезон

1

iTunes

iTunes

iTunes

1 сезон

RePack

30

ИГРА 18+

pack

ВАЖНО

!!Акция!!

Alien_RageХит недели

RePack

MK11
pack

Забери бонус

RePack

jed

!!Акция!!

Alien_Rage

RePack

fifa19

RePack

Assassins Creed: Odyssey

RePack

NEED FOR SPEED™ PAYBACK

4 сезон

9 сезон

Бесстыжие 9 сезон

Все сериалы

все сериалы на PB.wtf

RePack

FAR CRY 5
  

Отпуск по ранению / Серии: 1-4 из 4 (Кирилл Капица) [2015, боевик, SATRip-AVC] pb.wtf

Отпуск по ранению через торрент pb.wtf

Размер: 2.15 GB | Добавлен: 5 лет назад | Торрент скачан:588 раз
Скачать  

11-10-2015 17:32 Отпуск по ранению Скачать торрент  

Отпуск по ранению

Год выпуска: 2015
Производство: Россия, StarMedia
Жанр: боевик
Продолжительность: 00:43:00
Субтитры: нет

Режиссёр: Кирилл Капица

В ролях: Игорь Лифанов, Ирина Сотикова, Александра Никифорова, Алексей Федотов, Юлия Зоркина, Сергей Мурзин, Игорь Ключников, Сергей Воробьёв (IV), Андрей Бабенко, Михаил Сливников, Евгений Курилкин, Дмитрий Александров (III), Валерий Ибрагимов, Геша Меньшиков, Руслан Нанава, Оксана Базилевич, Леонид Майзель, Илья Савельев, Юрий Агейкин

Описание: Командир спецподразделения ГРУ майор Артем Говоров во время операции по освобождению заложников - пленных иностранных журналистов, контужен и ранен в ногу. После госпиталя он уезжает в отпуск на десять дней в свой родной городок, где из родственников после смерти матери, у него остался только двоюродный брат. За эти десять дней он спасет от бандитов девушку, поможет местной полиции обезвредить опасную банду отморозков и найдёт свою любовь.



Качество: SATRip
Формат: MKV
Видео кодек: H.264
Аудио кодек: AC3
Видео: MPEG4 Video (H264), 720x400, 25fps,1742 Kbps,bit/pixel 0.201
Аудио: AC3 48000Hz, stereo, 192kbps,2 ch
Общее
Уникальный идентификатор : 171556261910866003993635989272835828015 (0x811088C113D1CA908439D2A4391AA92F)
Полное имя : B:\Отпуск по ранению\02 серия.mkv
Формат : Matroska
Версия формата : Version 2
Размер файла : 551 Мбайт
Продолжительность : 44 м.
Общий поток : 1742 Кбит/сек
Дата кодирования : UTC 2015-10-11 14:48:53
Программа кодирования : mkvmerge v7.8.0 ('River Man') 32bit built on Apr 3 2015 12:11:22
Библиотека кодирования : libebml v1.3.1 + libmatroska v1.4.2

Видео
Идентификатор : 1
Формат : AVC
Формат/Информация : Advanced Video Codec
Профиль формата : High@L4.1
Параметр CABAC формата : Да
Параметр ReFrames формата : 9 кадров
Идентификатор кодека : V_MPEG4/ISO/AVC
Продолжительность : 44 м.
Битрейт : 1484 Кбит/сек
Ширина : 720 пикселей
Высота : 400 пикселей
Соотношение сторон : 16:9
Режим частоты кадров : Постоянный
Частота кадров : 25,000 кадров/сек
Цветовое пространство : YUV
Субдискретизация насыщенности : 4:2:0
Битовая глубина : 8 бит
Тип развёртки : Прогрессивная
Бит/(Пиксели*Кадры) : 0.206
Размер потока : 459 Мбайт (83%)
Библиотека кодирования : x264 core 146 r2538 121396c
Настройки программы : cabac=1 / ref=9 / deblock=1:-1:-1 / analyse=0x3:0x133 / me=umh / subme=9 / psy=1 / psy_rd=1.00:0.00 / mixed_ref=0 / me_range=32 / chroma_me=1 / trellis=2 / 8x8dct=1 / cqm=0 / deadzone=21,11 / fast_pskip=1 / chroma_qp_offset=-2 / threads=2 / lookahead_threads=4 / sliced_threads=0 / nr=0 / decimate=1 / interlaced=0 / bluray_compat=0 / constrained_intra=0 / bframes=9 / b_pyramid=2 / b_adapt=1 / b_bias=0 / direct=3 / weightb=1 / open_gop=0 / weightp=2 / keyint=240 / keyint_min=24 / scenecut=40 / intra_refresh=0 / rc_lookahead=40 / rc=2pass / mbtree=1 / bitrate=1484 / ratetol=1.0 / qcomp=0.60 / qpmin=0 / qpmax=69 / qpstep=4 / cplxblur=20.0 / qblur=0.5 / ip_ratio=1.40 / aq=1:1.20
Default : Да
Forced : Нет
Цветовой диапазон : Limited
Основные цвета : BT.601 PAL
Характеристики трансфера : BT.470 System B, BT.470 System G
Коэффициенты матрицы : BT.601

Аудио
Идентификатор : 2
Формат : AC-3
Формат/Информация : Audio Coding 3
Расширение режима : CM (complete main)
Параметр Endianness формата : Big
Идентификатор кодека : A_AC3
Продолжительность : 44 м.
Вид битрейта : Постоянный
Битрейт : 256 Кбит/сек
Каналы : 2 канала
Расположение каналов : Front: L R
Частота : 48,0 КГц
Метод сжатия : С потерями
Размер потока : 81,0 Мбайт (15%)
Default : Да
Forced : Нет
Внимание! Раздача ведётся путём добавления новых серий; при каждом добавлении создаётся новый торрент.
Чтобы начать докачку новой серии, пользователям необходимо сделать следующее:
1. Остановить скачивание;
2. Удалить старый торрент у себя из клиента (старые серии удалять не надо);
3. Скачать новый торрент и запустить его у себя в клиенте вместо старого, при этом указать клиенту путь в старую папку куда и должно происходить скачивание новых серий. Ваш клиент при этом должен произвести хеширование (проверку) старой папки и будет докачивать только те серии, которых у вас ещё нет. Старые серии при этом не удаляются, а продолжают раздаваться! Eсли вы уже удалили старые серии, то предотвратить повторную закачку старых серий можно, отжав галочку в соответствующих местах при запуске нового торрента.
Рекламы нет.Добавлены 3-4 серия.pb.wtf



Скачать Отпуск по ранению через торрент http://i65.fastpic.ru/big/2015/1011/ba/7a189fa288140c5ad377147f972fe2ba.jpg Скачать фильм Отпуск по ранению через торрент бесплантно в хорошем качестве Описание: Командир спецподразделения ГРУ майор Артем Говоров во время операции по освобождению заложников - пленных иностранных ... 9.1 10 23
Торрент: Зарегистрирован [2015-10-11 22:39] · скачан: 588 раз
Статус: √ проверено
Размер: 2.15 GB
Как cкачать? Как скачать Отпуск по ранению через торрент | qTorrent

% Раздел Тема Автор DL S | L
Наши сериалы [ 7.39 GB ] Отпуск по ранению Серии 1-4 из 4 [2014 HDTVRip 720p] bober100 Скачать
2 | 0
Наши сериалы [ 8.94 GB ] Отпуск по ранению Серии 1-4 из 4 [2014 HDTV 1080i] bober100 Скачать
3 | 0

28-11-2019 20:33  

Отключить всю рекламу на сайте

11-10-2015 22:48 Отпуск по ранению Скачать торрент  

2014гpb.wtf



    Дорогой пользователь! Огромная просьба, поблагодарите релизера, оцените раздачу и оставьте свои комментарий, если Вы скачали Отпуск по ранению через торрент бесплатно! Внесите свою лепту в развитие PiratBit!
    Комментировать посты могут только пользователи прошедшие не сложную регистрацию
    Показать сообщения:    

    Отпуск по ранению через торрент
    Скачать бесплатно Отпуск по ранению
    Отпуск по ранению скачать торрент
    Отпуск по ранению смотреть онлайн
    Cкачать фильм Отпуск по ранению бесплатно
    Отпуск по ранению скачать торрент в хорошем качестве
    Отпуск по ранению смотреть онлайн бесплатно в хорошем качестве


    Вы не можете начинать темы
    Вы не можете отвечать на сообщения
    Вы не можете редактировать свои сообщения
    Вы не можете удалять свои сообщения
    Вы не можете голосовать в опросах
    Вы не можете прикреплять файлы к сообщениям
    Вы можете скачивать файлы