Ссылка на приватное зеркало нашего сайта всего за 1$. Внимание количество ограничено!!!

2 сезон

iTunes

1 сезон

1

2 сезон

2 сезон

iTunes

1 сезон

RePack

30

Ultimate

ВАЖНО

ИГРА 18+

pack

RePack

MK11
pack

Забери бонус

RePack

jed

!!Акция!!

Alien_Rage

RePack

fifa19

RePack

Assassins Creed: Odyssey

RePack

NEED FOR SPEED™ PAYBACK

4 сезон

9 сезон

Бесстыжие 9 сезон

Все сериалы

все сериалы на PB.wtf

RePack

FAR CRY 5
  

Последнее Королевство / The Last Kingdom / Сезон: 1 / Серии 1-8 из 8 (Бен Чанан, Энтони Бирн) [2015 г., Исторический, боевик, мелодрама, WEB-DLRip-AVC] MVO [BaibaKo] pb.wtf

Последнее Королевство через торрент pb.wtf

Размер: 10.37 GB | Добавлен: 4 года 11 мес. назад | Торрент скачан:165 раз
Скачать  

12-10-2015 02:16 Последнее Королевство Скачать торрент  

Последнее Королевство / The Last Kingdom

  • Год выпуска: 2015
  • Страна: Великобритания, Carnival Film & Television
  • Жанр: Исторический, боевик, мелодрама
  • Продолжительность: 00:59:19 (Серия)
  • Перевод: Профессиональный многоголосый закадровый [BaibaKo]
  • Режиссер: Энтони Бирн / Anthony Byrne, Бен Чанан / Ben Chanan, Питер Хор / Peter Hoar
  • В ролях:

    Александр Дреймон (Uhtred of Bebbanburg), Николас Роу (Asser), Эмили Кокс (Brida), Rune Temte (Ubba), Иэн Харт (Beocca), Дэвид Доусон (Alfred), Джозеф Миллсон (Alferic), Томас В. Габриэльссон (Guthrum), Хеннинг Валин Якобсен (Storri), Герард Кернс (Halig), Алек Ньюман (King Aethelred), Мадлен Пауэр (Young Thyra)
    Описание:
    Сюжет рассказывает о временах правления короля Уэссекса Альфреда Великого, сумевшего отвоевать английские земли у датских викингов — заморских захватчиков. Главным героем повествования выступает ещё в младенчестве похищенный данами Утред — потомок благородного саксонского рода. Воспитанный как викинг, в очень непростой момент жизненного выбора молодой воин должен будет решить для себя, чью сторону он примет в решающих сражениях за судьбу древней Британии.
  • Рейтинг:


  • Качество: WEB-DLRip-AVC
  • Формат: : MPEG-4
  • Видео кодек: AVC
  • Аудио кодек: MP3
  • Видео: 2500 Кбит/сек, 1024*576 (16:9), в 25,000 кадров/сек, AVC
  • Аудио: 1 Русский 384 Кбит/сек, 48,0 КГц, 16 бит, 6 каналов, AC-3
  • Аудио: 2 Английский 384 Кбит/сек, 48,0 КГц, 16 бит, 6 каналов, AC-3




    Код:

    Внимание! Раздача ведётся путём добавления новых серий; при каждом добавлении создаётся новый торрент. Чтобы начать докачку новой серии, пользователям необходимо сделать следующее:
    (1) остановить скачивание,
    (2) удалить старый торрент у себя из клиента (старые серии удалять не надо),
    (3) скачать новый торрент и запустить его у себя в клиенте вместо старого, при этом указать клиенту путь в старую папку куда и должно происходить скачивание новых серий.
    Ваш клиент при этом должен произвести хеширование (проверку) старой папки (если не производит сам - помогите ему сделать это), и будет докачивать только те серии которых у вас ещё нет. Старые серии при этом не удаляются, а продолжают раздаваться!
    Eсли вы уже удалили старые серии, то предотвратить повторную закачку старых серий можно, отжав галочку в соответствующих местах при запуске нового торрента. По возможности, желательно не удалять старые серии как можно дольше чтобы релизёр не столько продолжал раздавать старые серии, а смог сконцентрироваться на новых.


    Код:

    Общее
    Полное имя                               : H:\Последнее королевство\The.Last.Kingdom.s01e01.WEB-DLRip-AVC.Rus.Eng.BaibaKo.tv.mp4
    Формат                                   : MPEG-4
    Профиль формата                          : Base Media
    Идентификатор кодека                     : isom
    Размер файла                             : 1,31 Гбайт
    Продолжительность                        : 59 м.
    Общий поток                              : 3156 Кбит/сек
    Программа кодирования                    : XviD4PSP 7.0.163
    encoding_info                            : MATROSKA / WEBM > MP4 / H264 > X264 CBR 2500kbps HQ1 / AC3 > AC3 CBR 384kbps / AC3 > AC3 CBR 384kbps

    Видео
    Идентификатор                            : 1
    Формат                                   : AVC
    Формат/Информация                        : Advanced Video Codec
    Профиль формата                          : High@L3.1
    Параметр CABAC формата                   : Да
    Параметр ReFrames формата                : 4 кадра
    Идентификатор кодека                     : avc1
    Идентификатор кодека/Информация          : Advanced Video Coding
    Продолжительность                        : 59 м.
    Битрейт                                  : 2500 Кбит/сек
    Ширина                                   : 1024 пикселя
    Высота                                   : 576 пикселей
    Соотношение сторон                       : 16:9
    Режим частоты кадров                     : Постоянный
    Частота кадров                           : 25,000 кадров/сек
    Цветовое пространство                    : YUV
    Субдискретизация насыщенности            : 4:2:0
    Битовая глубина                          : 8 бит
    Тип развёртки                            : Прогрессивная
    Бит/(Пиксели*Кадры)                      : 0.170
    Размер потока                            : 1011 Мбайт (76%)
    Библиотека кодирования                   : x264 core 148 r2579M 73ae2d1
    Настройки программы                      : cabac=1 / ref=3 / deblock=1:-1:-1 / analyse=0x3:0x133 / me=hex / subme=7 / psy=1 / psy_rd=1,00:0,20 / mixed_ref=1 / me_range=16 / chroma_me=1 / trellis=1 / 8x8dct=1 / cqm=0 / deadzone=21,11 / fast_pskip=1 / chroma_qp_offset=-3 / threads=6 / lookahead_threads=1 / sliced_threads=0 / nr=0 / decimate=1 / interlaced=0 / bluray_compat=0 / constrained_intra=0 / bframes=3 / b_pyramid=2 / b_adapt=2 / b_bias=0 / direct=3 / weightb=1 / open_gop=0 / weightp=2 / keyint=250 / keyint_min=25 / scenecut=40 / intra_refresh=0 / rc_lookahead=40 / rc=cbr / mbtree=1 / bitrate=2500 / ratetol=1,0 / qcomp=0,60 / qpmin=0 / qpmax=69 / qpstep=4 / vbv_maxrate=2500 / vbv_bufsize=2500 / nal_hrd=none / filler=0 / ip_ratio=1,40 / aq=1:1,00
    Цветовой диапазон                        : Limited
    Основные цвета                           : BT.709
    Характеристики трансфера                 : BT.709
    Коэффициенты матрицы                     : BT.709

    Аудио #1
    Идентификатор                            : 2
    Формат                                   : AC-3
    Формат/Информация                        : Audio Coding 3
    Расширение режима                        : CM (complete main)
    Параметр Endianness формата              : Big
    Идентификатор кодека                     : ac-3
    Продолжительность                        : 59 м.
    Вид битрейта                             : Постоянный
    Битрейт                                  : 384 Кбит/сек
    Каналы                                   : 6 каналов
    Расположение каналов                     : Front: L C R, Side: L R, LFE
    Частота                                  : 48,0 КГц
    Битовая глубина                          : 16 бит
    Метод сжатия                             : С потерями
    Размер потока                            : 163 Мбайт (12%)
    Язык                                     : Russian

    Аудио #2
    Идентификатор                            : 3
    Формат                                   : AC-3
    Формат/Информация                        : Audio Coding 3
    Расширение режима                        : CM (complete main)
    Параметр Endianness формата              : Big
    Идентификатор кодека                     : ac-3
    Продолжительность                        : 59 м.
    Вид битрейта                             : Постоянный
    Битрейт                                  : 384 Кбит/сек
    Каналы                                   : 6 каналов
    Расположение каналов                     : Front: L C R, Side: L R, LFE
    Частота                                  : 48,0 КГц
    Битовая глубина                          : 16 бит
    Метод сжатия                             : С потерями
    Размер потока                            : 163 Мбайт (12%)
    Язык                                     : English



    Скриншоты:
    скриншот   скриншот   скриншот   скриншот   скриншот  
    скриншот  

    Раздача ведётся путём добавления новых серий. Добавлена 8 серия (02.12.2015).Просьба перекачать торрент файл.

    pb.wtf



  • Скачать Последнее Королевство через торрент http://pic1.kartinco.top/images/10/9px9p.jpg Скачать фильм Последнее Королевство через торрент бесплантно в хорошем качестве Описание: Сюжет рассказывает о временах правления короля Уэссекса Альфреда Великого, сумевшего отвоевать английские земли у датских ... 9 10 35
    Info! Золотая раздача, скачанное не засчитывается.
    Торрент: Зарегистрирован [2015-12-02 12:35] · скачан: 165 раз
    Статус: √ проверено
    Размер: 10.37 GB
    Как cкачать? Как скачать Последнее Королевство через торрент | qTorrent

    % Раздел Тема Автор DL S | L
    Зарубежные сериалы [ 19.59 GB ] Последнее Королевство / The Last Kingdom / Сезон: 2 / Серии 1-8 из 8 [2017 Исторический WEB-DLRip 1080] MVO [BaibaKo] Dusster Скачать
    1 | 0
    Зарубежные сериалы [ 4.85 GB ] Последнее Королевство / The Last Kingdom / Сезон: 2 / Серии 1-8 из 8 [2017 история HDTVRip многоголосый LostFilm] oleg8 Скачать
    2 | 0
    Зарубежные сериалы [ 8.73 GB ] Последнее Королевство / The Last Kingdom / Сезон: 2 / Серии 1-8 из 8 [2017 Исторический WEB-DLRip-AVC] MVO [BaibaKo] GEKADOL Скачать
    1 | 0
    Зарубежные сериалы [ 5.41 GB ] Последнее королевство / The Last Kingdom / 1 сезон / 1-8 серии из 8 [2015 исторический WEB-DLRip] MVO [NewStudio] bober100 Скачать
    1 | 0
    Зарубежные сериалы [ 19.36 GB ] Последнее Королевство / The Last Kingdom / Сезон: 1 / Серии 1-8 из 8 [2015 Исторический WEB-DLRip 1080] MVO [BaibaKo] Dusster Скачать
    1 | 0
    Зарубежные сериалы [ 5.5 GB ] Последнее королевство / The Last Kingdom / Сезон: 1 / Серии: 1-8 из 8 [2015 история WEB-DLRip] [MVO] killermax2013 Скачать
    1 | 0
    Зарубежные сериалы [ 3.97 GB ] Последнее королевство / The Last Kingdom / Сезон: 1 / Серии: 1-2 из 8 [2015 история WEB-DL 720p] MVO 10oN Скачать
    1 | 0


    Последний раз редактировалось: GEKADOL (2015-12-02 12:35), всего редактировалось 7 раз(а)

    28-11-2019 20:33  

    Отключить всю рекламу на сайте

    12-10-2015 13:00 Последнее Королевство Скачать торрент  

    Ну щас гляну что тут у нас pb.wtf



    12-10-2015 22:03 Последнее Королевство Скачать торрент  

    уже глянул в принципе очень и очень не плохо
    жду продолжения чем то напомнил сериал викинговpb.wtf



    27-10-2015 15:37 Последнее Королевство Скачать торрент  

    Чё то как то не очень, про викингов в разы лучше былоpb.wtf



    08-11-2015 09:11 Последнее Королевство Скачать торрент  

    по-моему не плохо Только долго жду 5 серию Кто в курсе когда?pb.wtf



    09-11-2015 02:09 Последнее Королевство Скачать торрент  

    lexa67 писал(а):

    по-моему не плохо Только долго жду 5 серию Кто в курсе когда?

    1 сезон 8 серия «Episode 8» 0 28 Ноя 2015
    1 сезон 7 серия «Episode 7» 0 21 Ноя 2015
    1 сезон 6 серия «Episode 6» 0 14 Ноя 2015
    1 сезон 5 серия «Episode 5» 0 7 Ноя 2015
    Плюс озвучка!! pb.wtf



    09-11-2015 05:45 Последнее Королевство Скачать торрент  

    класс спс за информациюpb.wtf



    16-11-2015 12:48 Последнее Королевство Скачать торрент  

    Это по Бернарду Корнуэллу. Он еще Стрелка Шарпа написал.pb.wtf



      Дорогой пользователь! Огромная просьба, поблагодарите релизера, оцените раздачу и оставьте свои комментарий, если Вы скачали Последнее Королевство через торрент бесплатно! Внесите свою лепту в развитие PiratBit!
      Комментировать посты могут только пользователи прошедшие не сложную регистрацию
      Показать сообщения:    

      Последнее Королевство через торрент
      Скачать бесплатно Последнее Королевство
      Последнее Королевство скачать торрент
      Последнее Королевство смотреть онлайн
      Cкачать фильм Последнее Королевство бесплатно
      Последнее Королевство скачать торрент в хорошем качестве
      Последнее Королевство смотреть онлайн бесплатно в хорошем качестве


      Вы не можете начинать темы
      Вы не можете отвечать на сообщения
      Вы не можете редактировать свои сообщения
      Вы не можете удалять свои сообщения
      Вы не можете голосовать в опросах
      Вы не можете прикреплять файлы к сообщениям
      Вы можете скачивать файлы