Ссылка на приватное зеркало нашего сайта всего за 1$. Внимание количество ограничено!!!

2 сезон

iTunes

1 сезон

1

iTunes

iTunes

iTunes

1 сезон

RePack

30

ИГРА 18+

pack

ВАЖНО

!!Акция!!

Alien_RageХит недели

RePack

MK11
pack

Забери бонус

RePack

jed

!!Акция!!

Alien_Rage

RePack

fifa19

RePack

Assassins Creed: Odyssey

RePack

NEED FOR SPEED™ PAYBACK

4 сезон

9 сезон

Бесстыжие 9 сезон

Все сериалы

все сериалы на PB.wtf

RePack

FAR CRY 5
  

Частное пионерское (Александр Карпиловский) [2013, Россия, детский, приключения, HDTVRip от AVP Studio] pb.wtf

Частное пионерское через торрент pb.wtf

Размер: 1.09 GB | Добавлен: 5 лет назад | Торрент скачан:47 раз
Скачать  

13-10-2015 12:58 Частное пионерское Скачать торрент  

Частное пионерское«Долг, дружба, любовь... Что важнее?»
Страна: Россия
Производство: ООО "ТО Кинопрограмма ХХI век"
Жанр: детский, приключения
Год выпуска: 2013
Продолжительность: 01:40:18

Перевод: не требуется
Оригинальная аудиодорожка: нет
Cубтитры: нет

Режиссер: Александр Карпиловский

В ролях:
Семен Трескунов, Егор Клинаев, Анфиса Вистингаузен, Юлия Рутберг, Светлана Иванова, Владимир Зайцев, Ирина Линдт, Раиса Рязанова, Роман Мадянов, Евгений Мундум, Валентин Садики, Анастасия Добрынина, Екатерина Дурова, Тимофей Трибунцев, Михаил Васьков, Юлия Полынская, Александр Никольский, Вероника Лысакова, Пётр Ступин, Артём Алексеев, Сергей Походаев, Валера Бажибин, Максим Тихонов, Дмитрий Воронцов...
Полный список актёров

Описание:
Мишка и его верный друг Димка – школьники. Они готовятся к празднованию дня рождения пионерской организации. На рыбалке Мишка падает в реку, но его спасает бездомная собака, с которой ребята очень подружились... Неожиданно собака попадает к скорняку, и только помощь друзей может избавить её от неминуемой гибели. Перед Мишкой и Димкой встает непростой выбор - участие в пионерском празднике или спасение собаки ... Долг, дружба, любовь... Что важнее?

Исходник: HDTV 1080i
Тип релиза: HDTVRip
Контейнер: AVI

Видео: 720x304 (2,35:1), 25 fps, XviD ~ 1098 kbps avg, 0.201 bit/pixel
Аудио: 48 kHz, Dolby Digital AC3 5.1, 448 kbps

Раздача от:
Общее
Полное имя : Chastnoe.pionerskoe.2013.HDTVRip_[New-team]_by_AVP_Studio.avi
Формат : AVI
Формат/Информация : Audio Video Interleave
Размер файла : 1,09 Гбайт
Продолжительность : 1 ч. 40 м.
Общий поток : 1555 Кбит/сек
Программа кодирования : VirtualDubMod 1.5.10.3 | www.virtualdub-fr.org || (build 2550/release)
Библиотека кодирования : VirtualDubMod build 2550/release

Видео
Идентификатор : 0
Формат : MPEG-4 Visual
Профиль формата : Advanced Simple@L5
Параметр BVOP формата : 1
Параметр QPel формата : Нет
Параметр GMC формата : Без точки перехода
Параметр матрицы формата : Выборочная
Идентификатор кодека : XVID
Идентификатор кодека/Подсказка : XviD
Продолжительность : 1 ч. 40 м.
Битрейт : 1098 Кбит/сек
Ширина : 720 пикселей
Высота : 304 пикселя
Соотношение сторон : 2,35:1
Частота кадров : 25,000 кадров/сек
Цветовое пространство : YUV
Субдискретизация насыщенности : 4:2:0
Битовая глубина : 8 бит
Тип развёртки : Прогрессивная
Метод сжатия : С потерями
Бит/(Пиксели*Кадры) : 0.201
Размер потока : 788 Мбайт (71%)
Библиотека кодирования : XviD 73

Аудио
Идентификатор : 1
Формат : AC-3
Формат/Информация : Audio Coding 3
Расширение режима : CM (complete main)
Параметр Endianness формата : Big
Идентификатор кодека : 2000
Продолжительность : 1 ч. 40 м.
Вид битрейта : Постоянный
Битрейт : 448 Кбит/сек
Каналы : 6 каналов
Расположение каналов : Front: L C R, Side: L R, LFE
Частота : 48,0 КГц
Метод сжатия : С потерями
Размер потока : 321 Мбайт (29%)
Выравнивание : Разделение по промежуткам
Продолжительность промежутка : 40 мс. (1,00 видеокадр)
Время предзагрузки промежутка : 500 мс
pb.wtf



Скачать Частное пионерское через торрент http://s018.radikal.ru/i513/1510/3a/7b9544661b34.png Скачать фильм Частное пионерское через торрент бесплантно в хорошем качестве Описание:Мишка и его верный друг Димка – школьники. Они готовятся к празднованию дня рождения пионерской организации. На рыбалке Мишка ... 9.6 10 5
Info! Золотая раздача, скачанное не засчитывается.
Торрент: Зарегистрирован [2015-10-13 12:58] · скачан: 47 раз
Статус: √ проверено
Размер: 1.09 GB
Как cкачать? Как скачать Частное пионерское через торрент | qTorrent

% Раздел Тема Автор DL S | L
Наши новые фильмы 2017 [ 2.91 GB ] Частное пионерское 3. Привет взрослая жизнь! [2017 Россия WEB-DLRip 720p от AVP Studio] AVP Studio Скачать
1 | 0
Наши новые фильмы 2017 [ 2.18 GB ] Частное пионерское 3. Привет взрослая жизнь! [2017 Россия WEB-DLRip-AVC от AVP Studio] AVP Studio Скачать
1 | 0
Наши новые фильмы 2017 [ 746 MB ] Частное пионерское 3. Привет взрослая жизнь! [2017 Россия WEB-DLRip от AVP Studio] AVP Studio Скачать
1 | 0
Видео для КПК и Смартфонов [ 360 MB ] Частное пионерское 3. Привет взрослая жизнь! [2017 WEB-DLRip КПК] bober100 Скачать
1 | 0
Наши новые фильмы 2017 [ 747 MB ] Частное пионерское 3. Привет взрослая жизнь! [2017 WEB-DLRip] bober100 Скачать
1 | 0
Наши фильмы (HD, WEB-DL 720p, 1080p) [ 3.07 GB ] Частное пионерское 3. Привет взрослая жизнь! [2017 WEB-DL 1080p] bober100 Скачать
1 | 0
Наши новые фильмы 2017 [ 1.46 GB ] Частное пионерское 3. Привет взрослая жизнь! [2017 WEB-DLRip] bober100 Скачать
1 | 0

28-11-2019 20:33  

Отключить всю рекламу на сайте

    Дорогой пользователь! Огромная просьба, поблагодарите релизера, оцените раздачу и оставьте свои комментарий, если Вы скачали Частное пионерское через торрент бесплатно! Внесите свою лепту в развитие PiratBit!
    Комментировать посты могут только пользователи прошедшие не сложную регистрацию
    Показать сообщения:    

    Частное пионерское через торрент
    Скачать бесплатно Частное пионерское
    Частное пионерское скачать торрент
    Частное пионерское смотреть онлайн
    Cкачать фильм Частное пионерское бесплатно
    Частное пионерское скачать торрент в хорошем качестве
    Частное пионерское смотреть онлайн бесплатно в хорошем качестве


    Вы не можете начинать темы
    Вы не можете отвечать на сообщения
    Вы не можете редактировать свои сообщения
    Вы не можете удалять свои сообщения
    Вы не можете голосовать в опросах
    Вы не можете прикреплять файлы к сообщениям
    Вы можете скачивать файлы