2 сезон

iTunes

WEBRip

1

2 сезон

iTunes

1 сезон

1 сезон

RePack

30

Ultimate

ВАЖНО

ИГРА 18+

pack

RePack

MK11
pack

Легкие деньги

RePack

jed

RePack

fifa19

RePack

RDR2

RePack

NEED FOR SPEED™ PAYBACK

4 сезон

9 сезон

Бесстыжие 9 сезон

Все сериалы

все сериалы на PB.wtf

RePack

FAR CRY 5

Anonymous, доброй ночи, мы не успеваем собрать деньги на оплату серверов за февраль, помогите нам пожалуйста в это трудное время. В качестве благодарности мы отключим Вам всю рекламу на сайте (укажите свой ник в строку Ваше имя)!

×
  
Magnet ссылка

Частное пионерское (Александр Карпиловский) [2013, Россия, детский, приключения, HDTVRip-AVC от AVP Studio] pb.wtf

Частное пионерское через торрент pb.wtf

Размер: 1.46 GB | Добавлен: 5 лет 4 мес. назад | Торрент скачан:357 раз
Скачать  

13-10-2015 13:03 Частное пионерское Скачать торрент  

Частное пионерское«Долг, дружба, любовь... Что важнее?»
Страна: Россия
Производство: ООО "ТО Кинопрограмма ХХI век"
Жанр: детский, приключения
Год выпуска: 2013
Продолжительность: 01:40:18

Перевод: не требуется
Оригинальная аудиодорожка: нет
Cубтитры: нет

Режиссер: Александр Карпиловский

В ролях:
Семен Трескунов, Егор Клинаев, Анфиса Вистингаузен, Юлия Рутберг, Светлана Иванова, Владимир Зайцев, Ирина Линдт, Раиса Рязанова, Роман Мадянов, Евгений Мундум, Валентин Садики, Анастасия Добрынина, Екатерина Дурова, Тимофей Трибунцев, Михаил Васьков, Юлия Полынская, Александр Никольский, Вероника Лысакова, Пётр Ступин, Артём Алексеев, Сергей Походаев, Валера Бажибин, Максим Тихонов, Дмитрий Воронцов...
Полный список актёров

Описание:
Мишка и его верный друг Димка – школьники. Они готовятся к празднованию дня рождения пионерской организации. На рыбалке Мишка падает в реку, но его спасает бездомная собака, с которой ребята очень подружились... Неожиданно собака попадает к скорняку, и только помощь друзей может избавить её от неминуемой гибели. Перед Мишкой и Димкой встает непростой выбор - участие в пионерском празднике или спасение собаки ... Долг, дружба, любовь... Что важнее?

Исходник: HDTV 1080i
Тип релиза: HDTVRip-AVC
Контейнер: MKV

Видео: 1024x434 (2,35:1), 25 fps, H264 ~ 1632 kbps avg, 0.147 bit/pixel
Аудио: 48 kHz, Dolby Digital AC3 5.1, 448 kbps

Раздача от:
Общее
Полное имя : Chastnoe.pionerskoe.2013.HDTVRip-AVC_[New-team]_by_AVP_Studio.mkv
Формат : Matroska
Версия формата : Version 2
Размер файла : 1,46 Гбайт
Продолжительность : 1 ч. 40 м.
Общий поток : 2082 Кбит/сек
Дата кодирования : UTC 2015-10-13 01:58:04
Программа кодирования : mkvmerge v6.1.0 ('Old Devil') built on Mar 4 2013 09:10:42
Библиотека кодирования : libebml v1.3.0 + libmatroska v1.4.0

Видео
Идентификатор : 1
Формат : AVC
Формат/Информация : Advanced Video Codec
Профиль формата : High@L4.1
Параметр CABAC формата : Да
Параметр ReFrames формата : 10 кадров
Идентификатор кодека : V_MPEG4/ISO/AVC
Продолжительность : 1 ч. 40 м.
Битрейт : 1632 Кбит/сек
Ширина : 1024 пикселя
Высота : 434 пикселя
Соотношение сторон : 2,35:1
Режим частоты кадров : Постоянный
Частота кадров : 25,000 кадров/сек
Цветовое пространство : YUV
Субдискретизация насыщенности : 4:2:0
Битовая глубина : 8 бит
Тип развёртки : Прогрессивная
Бит/(Пиксели*Кадры) : 0.147
Размер потока : 1,12 Гбайт (76%)
Библиотека кодирования : x264 core 148 r2597 e86f3a1
Настройки программы : cabac=1 / ref=10 / deblock=1:-3:-2 / analyse=0x3:0x113 / me=umh / subme=10 / psy=1 / psy_rd=1.00:0.00 / mixed_ref=1 / me_range=32 / chroma_me=1 / trellis=2 / 8x8dct=1 / cqm=0 / deadzone=21,11 / fast_pskip=1 / chroma_qp_offset=-2 / threads=6 / lookahead_threads=1 / sliced_threads=0 / nr=0 / decimate=0 / interlaced=0 / bluray_compat=0 / constrained_intra=0 / bframes=8 / b_pyramid=2 / b_adapt=2 / b_bias=0 / direct=3 / weightb=1 / open_gop=0 / weightp=2 / keyint=250 / keyint_min=25 / scenecut=40 / intra_refresh=0 / rc_lookahead=40 / rc=2pass / mbtree=1 / bitrate=1632 / ratetol=1.0 / qcomp=0.60 / qpmin=0 / qpmax=69 / qpstep=4 / cplxblur=20.0 / qblur=0.5 / ip_ratio=1.40 / aq=1:1.00
Default : Да
Forced : Нет

Аудио
Идентификатор : 2
Формат : AC-3
Формат/Информация : Audio Coding 3
Расширение режима : CM (complete main)
Параметр Endianness формата : Big
Идентификатор кодека : A_AC3
Продолжительность : 1 ч. 40 м.
Вид битрейта : Постоянный
Битрейт : 448 Кбит/сек
Каналы : 6 каналов
Расположение каналов : Front: L C R, Side: L R, LFE
Частота : 48,0 КГц
Метод сжатия : С потерями
Размер потока : 321 Мбайт (22%)
Default : Да
Forced : Нет
pb.wtf



Скачать Частное пионерское через торрент http://s018.radikal.ru/i513/1510/3a/7b9544661b34.png Скачать фильм Частное пионерское через торрент бесплантно в хорошем качестве Описание:Мишка и его верный друг Димка – школьники. Они готовятся к празднованию дня рождения пионерской организации. На рыбалке Мишка ... 9.1 10 11
Info! Золотая раздача, скачанное не засчитывается.
Торрент: Зарегистрирован [2015-10-13 13:03] · скачан: 357 раз
Статус: √ проверено
Размер: 1.46 GB
Как cкачать? Как скачать Частное пионерское через торрент | UTorrent

% Раздел Тема Автор DL S | L
Наши фильмы 2017 [ 2.91 GB ] Частное пионерское 3. Привет взрослая жизнь! [2017 Россия WEB-DLRip 720p от AVP Studio] AVP Studio Скачать
1 | 0
Наши фильмы 2017 [ 2.18 GB ] Частное пионерское 3. Привет взрослая жизнь! [2017 Россия WEB-DLRip-AVC от AVP Studio] AVP Studio Скачать
1 | 0
Наши фильмы 2017 [ 746 MB ] Частное пионерское 3. Привет взрослая жизнь! [2017 Россия WEB-DLRip от AVP Studio] AVP Studio Скачать
1 | 0
Видео для КПК и Смартфонов [ 360 MB ] Частное пионерское 3. Привет взрослая жизнь! [2017 WEB-DLRip КПК] bober100 Скачать
1 | 0
Наши фильмы 2017 [ 747 MB ] Частное пионерское 3. Привет взрослая жизнь! [2017 WEB-DLRip] bober100 Скачать
1 | 0
Наши фильмы (HD, WEB-DL 720p, 1080p) [ 3.07 GB ] Частное пионерское 3. Привет взрослая жизнь! [2017 WEB-DL 1080p] bober100 Скачать
1 | 0
Наши фильмы 2017 [ 1.46 GB ] Частное пионерское 3. Привет взрослая жизнь! [2017 WEB-DLRip] bober100 Скачать
1 | 0

28-11-2019 20:33  

Отключить всю рекламу на сайте

    Дорогой пользователь! Огромная просьба, поблагодарите релизера, оцените раздачу и оставьте свои комментарий, если Вы скачали Частное пионерское через торрент бесплатно! Внесите свою лепту в развитие PiratBit!
    Комментировать посты могут только пользователи прошедшие не сложную регистрацию
    Показать сообщения:    

    Частное пионерское через торрент
    Скачать бесплатно Частное пионерское
    Частное пионерское скачать торрент
    Частное пионерское смотреть онлайн
    Cкачать фильм Частное пионерское бесплатно
    Частное пионерское скачать торрент в хорошем качестве
    Частное пионерское смотреть онлайн бесплатно в хорошем качестве


    Вы не можете начинать темы
    Вы не можете отвечать на сообщения
    Вы не можете редактировать свои сообщения
    Вы не можете удалять свои сообщения
    Вы не можете голосовать в опросах
    Вы не можете прикреплять файлы к сообщениям
    Вы можете скачивать файлы