новый адрес
Мега распродажа FORZA HORIZON 4 ULTIMATE+ВСЕ DLC+ОНЛАЙН всего за 499р. 349 руб. (супер цена). Внимание количество ограничено!!!

iTunes

1+1

iTunes

мы

iTunes

1

iTunes

Чернобыль

iTunes

Ральф против интернета

Лицензия

ПШазам

Лицензия

Игра престолов

Лицензия

30
pack

ВАЖНО

!!Акция!!

Alien_RageХит недели

RePack

Resident Evil 21

ИГРА 18+

pack

RePack

Metro:Exodus

!!Акция!!

Alien_Rage

RePack

fifa19

RePack

Assassins Creed: Odyssey

RePack

NEED FOR SPEED™ PAYBACK

3 сезон

9 сезон

Бесстыжие 9 сезон

Все сериалы

все сериалы на PB.wtf

RePack

FAR CRY 5
Ребята, катастрофически не хватает 1900р. для оплаты серверов за Октябрь (всвязи с блокировками трафик упал в 3 раза), 1-2р., выручайте.
  

Через Гоби и Хинган (Василий Ордынский, Бадрахын Сумху) [1981, СССР, Монголия, Германия (ГДР), военный, DVDRip от AVP Studio] pb.wtf

Через Гоби и Хинган через торрент pb.wtf

Размер: 1.46 GB | Добавлен: 3 года 5 мес. назад | Торрент скачан:16 раз
Скачать  

14-10-2015 09:35 Через Гоби и Хинган Скачать торрент  

Через Гоби и Хинган
Страна: СССР, Монголия, Германия (ГДР)
Производство: Мосфильм, Монголкино

Жанр: военный
Год выпуска: 1981
Продолжительность: 02:37:05 (01:16:55 + 01:20:10)

Перевод: Не требуется
Cубтитры: нет
Оригинальная аудиодорожка: русский

Режиссер: Василий Ордынский, Бадрахын Сумху

В ролях:
Александр Овчинников, Владимир Ивашов, Людмила Петрова, Леонид Неведомский, Андро Кобаладзе, Ч. Нэргуй, Ц. Тимурбатор, Лев Золотухин, Всеволод Ларионов, Вячеслав Езепов, Ахсарбек Бекмурзов, Евгений Лазарев, Андрей Мартынов, Олег Штефанко, Болот Бейшеналиев, Татьяна Ким, Байтен Омаров, Гомбожавын Гомбосурэн, Николай Пеньков, Роман Хомятов, Валерий Лущевский, Светлана Тормахова, Ирина Гошева, Валерий Погорельцев, Николай Сморчков, Николай Маликов, Д. Дэлэг, Ц. Дамдиндорж, Р. Лута, Л. Лхасурэн, С. Сарантуяа...
Полный список актёров

Описание:
О событиях завершающего этапа второй мировой войны - разгроме советскими и монгольскими войсками отборной Квантунской армии. В лаборатории японского генерала Исии Сиро создавалось бактериологическое оружие. Опыты проводились на военнопленных и политических заключенных. Врачу-эпидемиологу Дмитрию Соколову было поручено разгадать тайну этой лаборатории. Ценой собственной жизни он выполнил задание. Марш советских и монгольских соединений через пески Гоби и отроги Хингана был не только блестящей военной операцией, но и предупреждением применения Японией бактериологического оружия...

Источник: DVD9 R2 чешский трансфер
Качество видео: DVDRip
Формат видео: AVI

Видео: 704x272 (2,588:1), 25 fps, XviD ~ 1127 kbps avg, 0.235 bit/pixel
Аудио: 48 kHz, Dolby Digital AC3 2.0, 192 kbps

Раздача от:
Общее
Полное имя : Cherez.Gobi.i.Hingan.1981.DVDRip_[New-team]_by_AVP_Studio.avi
Формат : AVI
Формат/Информация : Audio Video Interleave
Размер файла : 731 Мбайт
Продолжительность : 1 ч. 16 м.
Общий поток : 1329 Кбит/сек
Программа кодирования : VirtualDubMod 1.5.10.3 | www.virtualdub-fr.org || (build 2550/release)
Библиотека кодирования : VirtualDubMod build 2550/release

Видео
Идентификатор : 0
Формат : MPEG-4 Visual
Профиль формата : Advanced Simple@L5
Параметр BVOP формата : 1
Параметр QPel формата : Нет
Параметр GMC формата : Без точки перехода
Параметр матрицы формата : Выборочная
Идентификатор кодека : XVID
Идентификатор кодека/Подсказка : XviD
Продолжительность : 1 ч. 16 м.
Битрейт : 1127 Кбит/сек
Ширина : 704 пикселя
Высота : 272 пикселя
Соотношение сторон : 2,588
Частота кадров : 25,000 кадров/сек
Цветовое пространство : YUV
Субдискретизация насыщенности : 4:2:0
Битовая глубина : 8 бит
Тип развёртки : Прогрессивная
Метод сжатия : С потерями
Бит/(Пиксели*Кадры) : 0.235
Размер потока : 620 Мбайт (85%)
Библиотека кодирования : XviD 73

Аудио
Идентификатор : 1
Формат : AC-3
Формат/Информация : Audio Coding 3
Расширение режима : CM (complete main)
Параметр Endianness формата : Big
Идентификатор кодека : 2000
Продолжительность : 1 ч. 16 м.
Вид битрейта : Постоянный
Битрейт : 192 Кбит/сек
Каналы : 2 канала
Расположение каналов : Front: L R
Частота : 48,0 КГц
Метод сжатия : С потерями
Размер потока : 106 Мбайт (14%)
Выравнивание : Разделение по промежуткам
Продолжительность промежутка : 40 мс. (1,00 видеокадр)
Время предзагрузки промежутка : 500 мс
pb.wtf



Скачать Через Гоби и Хинган через торрент http://s018.radikal.ru/i522/1510/f6/4e548bf23061.png Скачать фильм Через Гоби и Хинган через торрент бесплантно в хорошем качестве Описание:О событиях завершающего этапа второй мировой войны - разгроме советскими и монгольскими войсками отборной Квантунской армии. В ... 10 10 1
Info! Золотая раздача, скачанное не засчитывается.
Торрент: Зарегистрирован [2016-05-20 08:23] · скачан: 16 раз
Статус: √ проверено
Размер: 1.46 GB
Как cкачать? Как скачать Через Гоби и Хинган через торрент | qTorrent

% Раздел Тема Автор DL S | L
Кино СССР [ 1.46 GB ] Через Гоби и Хинган [1981 СССР Монголия Германия военный DVDRip-AVC от AVP Studio] AVP Studio Скачать
1 | 0


>> Регистрируемся здесь <<






Отзывы и комментарии о схеме читаем и пишем здесь: ---> Отзывы и комментарии о схеме

Новые благодарочки в телеграм довольных пользователей:
скриншот   скриншот   скриншот   скриншот   скриншот
    Дорогой пользователь! Огромная просьба, поблагодарите релизера, оцените раздачу и оставьте свои комментарий, если Вы скачали Через Гоби и Хинган через торрент бесплатно! Внесите свою лепту в развитие PiratBit!
    Комментировать посты могут только пользователи прошедшие не сложную регистрацию
    Показать сообщения:    

    Через Гоби и Хинган через торрент
    Скачать бесплатно Через Гоби и Хинган
    Через Гоби и Хинган скачать торрент
    Через Гоби и Хинган смотреть онлайн
    Cкачать фильм Через Гоби и Хинган бесплатно
    Через Гоби и Хинган скачать торрент в хорошем качестве
    Через Гоби и Хинган смотреть онлайн бесплатно в хорошем качестве


    Вы не можете начинать темы
    Вы не можете отвечать на сообщения
    Вы не можете редактировать свои сообщения
    Вы не можете удалять свои сообщения
    Вы не можете голосовать в опросах
    Вы не можете прикреплять файлы к сообщениям
    Вы можете скачивать файлы