Ссылка на приватное зеркало всего за 1$. Внимание количество ограничено!!!

iTunes

iTunes

iTunes

1

iTunes

iTunes

iTunes

iTunes

iTunes

30
pack

$ от Little Big

ВАЖНО

!!Акция!!

Alien_RageХит недели

RePack

Resident Evil 21

ИГРА 18+

pack

RePack

jed

!!Акция!!

Alien_Rage

RePack

fifa19

RePack

Assassins Creed: Odyssey

RePack

NEED FOR SPEED™ PAYBACK

4 сезон

9 сезон

Бесстыжие 9 сезон

Все сериалы

все сериалы на PB.wtf

RePack

FAR CRY 5
  

Каникулы / Vacation (Джон Фрэнсис Дейли, Джонатан М. Голдштейн) [2015, комедия, приключения, WEB-DL 1080p, Дубляж] iTunes pb.wtf

Каникулы через торрент pb.wtf

Размер: 3.8 GB | Добавлен: 4 года 8 мес. назад | Торрент скачан:3073 раза
Скачать  

14-10-2015 10:47 Каникулы Скачать торрент  

Каникулы / Vacation«И что могло пойти не так»

  • Год выхода: 2015
  • Жанр: комедия, приключения

  • Страна: США
  • Продолжительность: 01:38:59
  • Перевод: Дубляж - [Лицензия / iTunes]
  • Режиссер: Джон Фрэнсис Дейли, Джонатан М. Голдштейн
  • В ролях:

    Эд Хелмс (Rusty Griswold), Кристина Эпплгейт (Debbie Griswold), Скайлер Джизондо (James Griswold), Стил Стеббинс (Kevin Griswold), Крис Хемсворт (Stone Crandall), Лесли Манн (Audrey Crandall), Чеви Чейз (Clark Griswold), Беверли Д’Анджело (Ellen Griswold), Чарли Дэй (Chad), Катрин Миссал (Adena), Рон Ливингстон (Ethan), Норман Ридус (Trucker)


  • Расти Гризвольд - молодой отец и примерный семьянин, который очень хочет сплотить семью и воссоздать каникулы из своего детства. Вместе с супругой и двумя сыновьями он решает совершить незабываемое путешествие через всю страну, конечной целью которого станет самый лучший тематический парк Америки. Все тщательно спланировав, они отправляются в дорогу, надеясь, что их ждет очень веселое и увлекательное путешествие.
    В начале пути все происходит как нельзя лучше, но чем дальше они отдаляются от дома, тем больше проблем их ждет впереди. Все пошло совсем не так, как планировал Расти, но он не собирается останавливаться и готов сделать все возможное для того, чтобы добраться до пункта назначения и подарить своей семье лучшие каникулы...

  • Качество: WEB-DL 1080p
  • Формат: MKV
  • Видео кодек: AVC
  • Аудио кодек: AC3
  • Видео: AVC, 1912x792 (2.40:1), 4419 kbps, 23,976 fps, 0,122 bpp
  • Аудио №1: русский / AC3 / 5.1 / 48 kHz / 384 kbps / 16 bit |Дубляж, iTunes|
  • Аудио №2: украинский / AC3 / 2.0 / 44 kHz / 192 kbps / 16 bit |Дубляж, iTunes|
  • Аудио №3: английский / AC3 / 5.1 / 48 kHz / 384 kbps / 16 bit
  • Навигация по главам: есть

    Код:

    General
    Unique ID                                : 193683290235220316651160892065609182684 (0x91B60B7A94076298B412DBCE7E9C6DDC)
    Complete name                            : H:\K4H1KyL1.2015D.WEB-DL.1080p.mkv
    Format                                   : Matroska
    Format version                           : Version 4 / Version 2
    File size                                : 3.80 GiB
    Duration                                 : 1h 38mn
    Overall bit rate                         : 5 488 Kbps
    Encoded date                             : UTC 2015-10-14 06:54:45
    Writing application                      : mkvmerge v8.3.0 ('Over the Horizon') 64bit
    Writing library                          : libebml v1.3.1 + libmatroska v1.4.2

    Video
    ID                                       : 1
    Format                                   : AVC
    Format/Info                              : Advanced Video Codec
    Format profile                           : High@L4.0
    Format settings, CABAC                   : Yes
    Format settings, ReFrames                : 5 frames
    Codec ID                                 : V_MPEG4/ISO/AVC
    Duration                                 : 1h 38mn
    Bit rate                                 : 4 419 Kbps
    Width                                    : 1 912 pixels
    Height                                   : 792 pixels
    Display aspect ratio                     : 2.40:1
    Frame rate                               : 23.976 fps
    Color space                              : YUV
    Chroma subsampling                       : 4:2:0
    Bit depth                                : 8 bits
    Scan type                                : Progressive
    Bits/(Pixel*Frame)                       : 0.122
    Stream size                              : 3.06 GiB (81%)
    Language                                 : English
    Default                                  : Yes
    Forced                                   : No
    Color primaries                          : BT.709-5, BT.1361, IEC 61966-2-4, SMPTE RP177
    Transfer characteristics                 : BT.709-5, BT.1361
    Matrix coefficients                      : BT.709-5, BT.1361, IEC 61966-2-4 709, SMPTE RP177

    Audio #1
    ID                                       : 2
    Format                                   : AC-3
    Format/Info                              : Audio Coding 3
    Mode extension                           : CM (complete main)
    Codec ID                                 : A_AC3
    Duration                                 : 1h 38mn
    Bit rate mode                            : Constant
    Bit rate                                 : 384 Kbps
    Channel(s)                               : 6 channels
    Channel positions                        : Front: L C R, Side: L R, LFE
    Sampling rate                            : 48.0 KHz
    Bit depth                                : 16 bits
    Compression mode                         : Lossy
    Stream size                              : 272 MiB (7%)
    Language                                 : Russian
    Default                                  : Yes
    Forced                                   : No

    Audio #2
    ID                                       : 3
    Format                                   : AC-3
    Format/Info                              : Audio Coding 3
    Mode extension                           : CM (complete main)
    Codec ID                                 : A_AC3
    Duration                                 : 1h 38mn
    Bit rate mode                            : Constant
    Bit rate                                 : 192 Kbps
    Channel(s)                               : 2 channels
    Channel positions                        : Front: L R
    Sampling rate                            : 44.1 KHz
    Bit depth                                : 16 bits
    Compression mode                         : Lossy
    Stream size                              : 136 MiB (3%)
    Language                                 : Ukrainian
    Default                                  : No
    Forced                                   : No

    Audio #3
    ID                                       : 4
    Format                                   : AC-3
    Format/Info                              : Audio Coding 3
    Mode extension                           : CM (complete main)
    Codec ID                                 : A_AC3
    Duration                                 : 1h 38mn
    Bit rate mode                            : Constant
    Bit rate                                 : 384 Kbps
    Channel(s)                               : 6 channels
    Channel positions                        : Front: L C R, Side: L R, LFE
    Sampling rate                            : 48.0 KHz
    Bit depth                                : 16 bits
    Compression mode                         : Lossy
    Stream size                              : 272 MiB (7%)
    Language                                 : English
    Default                                  : No
    Forced                                   : No

    Menu
    00:00:00.000                             : en:1
    00:12:57.000                             : en:2
    00:20:55.000                             : en:3
    00:29:27.000                             : en:4
    00:40:54.000                             : en:5
    00:47:55.000                             : en:6
    01:00:23.000                             : en:7
    01:09:41.000                             : en:8
    01:20:52.000                             : en:9
    01:28:00.000                             : en:10
    01:34:51.000                             : en:11

    Скриншоты:


    © Оформление by -Lexx- pb.wtf



  • Скачать Каникулы через торрент http://pic.kartinco.top/images/6/stazu.jpg Скачать фильм Каникулы через торрент бесплантно в хорошем качестве qw.png Расти Гризвольд - молодой отец и примерный семьянин, который очень хочет сплотить семью и воссоздать каникулы из своего детства. ... 9.6 10 88
    Info! Золотая раздача, скачанное не засчитывается.
    Торрент: Зарегистрирован [2015-10-14 10:47] · скачан: 3 073 раз
    Статус: √ проверено
    Размер: 3.8 GB
    Как cкачать? Как скачать Каникулы через торрент | qTorrent

    % Раздел Тема Автор DL S | L
    Зарубежные Мультфильмы (BDRip 1080p, 720p, Blu-ray, BD-Remux) [ 2.01 GB ] Монстры на каникулах 3: Море зовёт / Hotel Transylvania 3: Summer Vacation [2018 Мультфильм BDRip 1080p HEVC ()] Мичман37 Скачать
    1 | 0
    Зарубежные Мультфильмы (WEB-DL 720p, 1080p) [ 3.33 GB ] Монстры на каникулах 3: Море зовёт / Hotel Transylvania 3: Summer Vacation [2018 мультфильм WEB-DL 720p] DUB sheker187 Скачать
    4 | 0
    Зарубежные Мультфильмы (WEB-DL 720p, 1080p) [ 4.09 GB ] Монстры на каникулах 3: Море зовёт / Hotel Transylvania 3: Summer Vacation [2018 мультфильм WEB-DL 1080p] DUB sheker187 Скачать
    2 | 0
    R.G. Resident & PiratVoice - Фильмы, Видео [ 2.17 GB ] Каникулы / Vacation [2015 WEB-DLRip-AVC ] ] R.G.Resident schultz Скачать
    2 | 0
    Фильмы 2015 [DVDrip, WEB-DLRip, HDrip] [ 1.45 GB ] Каникулы / Vacation [2015 WEB-DLRip ] -Lexx- Скачать
    1 | 0
    Фильмы (WEB-DL 720p, 1080p) [ 3.45 GB ] Каникулы / Vacation [2015 WEB-DL 720p ] -Lexx- Скачать
    1 | 0
    Фильмы (BDRip, HDrip-AVC) (48-60 fps) [ 3.77 GB ] Каникулы / Vacation [2015 BDRip - AVC / 60fps - ] от R.G. HD-Films Ressident Скачать
    1 | 0

    28-11-2019 20:33  

    Отключить всю рекламу на сайте

    16-10-2015 13:15 Каникулы Скачать торрент  

    Ржакаpb.wtf



    17-10-2015 19:03 Каникулы Скачать торрент  

    Отличное кино, смеялись всей семьёйpb.wtf



    21-10-2015 15:04 Каникулы Скачать торрент  

    глянем, спасибо за раздачу)pb.wtf



    22-10-2015 12:58 Каникулы Скачать торрент  

    Прикольный фильмpb.wtf



    26-10-2015 09:51 Каникулы Скачать торрент  

    хороший фильмpb.wtf



    26-10-2015 19:16 Каникулы Скачать торрент  

    так себе на один разpb.wtf



    27-10-2015 20:03 Каникулы Скачать торрент  

    мой коммент удалили не понравилось админам )))ахаха а фильм просто тупость надо просто безмозглым быть чтоб назвать сее творение комедией а фильмом ваще нельзя назвать)pb.wtf
    K-Lexx- писал(а):

    Коммент никто не удалял, просто Вы его писали четыре минуты назад в другой теме. https://pb.wtf/viewtopic.php?p=876545#876545

    Будьте внимательнее.



    30-10-2015 10:24 Каникулы Скачать торрент  

    Слабый закос под "Мы - Миллеры". Слегка поменяли сюжет, заменили девочку на мальчика, напихали туалетного юмора. Готово! - Хавайте! Целевая аудитория для этого "шедевра": гоп-компании, школоло, низкоинтеллектуальный люмпен.pb.wtf



    08-11-2015 01:12 Каникулы Скачать торрент  

    Фильм на 5 из 10,местами смешно и забавно,местами туповат.Разок можно посмотреть.pb.wtf



    10-11-2015 11:33 Каникулы Скачать торрент  

    Хорошая комедия, напомнила "Мы - Миллеры", но немного до нее не дотянула pb.wtf



    14-11-2015 14:37 Каникулы Скачать торрент  

    Очень тупой юмор, даже для америкосов. 3 из 10.pb.wtf



    28-12-2015 12:32 Каникулы Скачать торрент  

    Да . Фильм слабоват . 1 раз посмотреть и забыть .pb.wtf



      Дорогой пользователь! Огромная просьба, поблагодарите релизера, оцените раздачу и оставьте свои комментарий, если Вы скачали Каникулы через торрент бесплатно! Внесите свою лепту в развитие PiratBit!
      Комментировать посты могут только пользователи прошедшие не сложную регистрацию
      Показать сообщения:    

      Каникулы через торрент
      Скачать бесплатно Каникулы
      Каникулы скачать торрент
      Каникулы смотреть онлайн
      Cкачать фильм Каникулы бесплатно
      Каникулы скачать торрент в хорошем качестве
      Каникулы смотреть онлайн бесплатно в хорошем качестве


      Вы не можете начинать темы
      Вы не можете отвечать на сообщения
      Вы не можете редактировать свои сообщения
      Вы не можете удалять свои сообщения
      Вы не можете голосовать в опросах
      Вы не можете прикреплять файлы к сообщениям
      Вы можете скачивать файлы