новый адрес
Ссылка на приватное зеркало всего за 1$. Внимание количество ограничено!!!

iTunes

1+1

iTunes

мы

WEB-DL

1

iTunes

Чернобыль

iTunes

Ральф против интернета

Лицензия

ПШазам

Лицензия

Оно 2

Лицензия

30
pack

Вам бонус

ВАЖНО

!!Акция!!

Alien_RageХит недели

RePack

Resident Evil 21

ИГРА 18+

pack

RePack

jed

!!Акция!!

Alien_Rage

RePack

fifa19

RePack

Assassins Creed: Odyssey

RePack

NEED FOR SPEED™ PAYBACK

3 сезон

9 сезон

Бесстыжие 9 сезон

Все сериалы

все сериалы на PB.wtf

RePack

FAR CRY 5
Ребята, катастрофически не хватает 1900р. для оплаты серверов за Октябрь (всвязи с блокировками трафик упал в 3 раза), 1-2р., выручайте.
  

Охота на роботов / Runaway (Майкл Крайтон) [1984, фантастика, боевик, триллер, криминал, BDRip AVC by msltel] DVO, AVO pb.wtf

Охота на роботов через торрент pb.wtf

Размер: 2 GB | Добавлен: 4 года 1 мес. назад | Торрент скачан:54 раза
Скачать  

14-10-2015 10:55 Охота на роботов Скачать торрент  

Название: Охота на роботов
Оригинальное название: Runaway
Год выпуска: 1984
Страна: США
Жанр: фантастика, боевик, триллер, криминал
Продолжительность: 01:40:04
Перевод: профессиональный двухголосый, авторский

Режиссёр: Майкл Крайтон

В ролях: Том Селлек, Синтия Роудс, Джин Симмонс, Кёрсти Элли, Стэн Шоу, Джои Крамер, Крис Малки, Энн-Мари Мартин, Майкл Пол Чан

Описание: Недалёкое будущее. Полицейский Джек Рамси — сотрудник особого отдела по обезвреживанию поломанных или спятивших роботов. Он расследует случай странного сумасшествия робота, которое привело к гибели людей. Джек выясняет, что преступление спланировано человеком, изменившим программу робота. Но как только полицейский находит след преступников, злоумышленник похищает его десятилетнего сына и требует вернуть все попавшие в руки полиции материалы и документы о сверхновых микросхемах...



Качество: BDRip AVC Сравнение с исходником
Формат: MKV
Видео: MPEG-4 AVC, 2228 Kбит/с, 1024х434, 23,976 кадра/с
Аудио 1: русский, AC3, 192 kbps, 2 ch, 48 kHz [профессиональный двухголосый, Екатеринбург Арт]
Аудио 2: русский, AC3, 192 kbps, 2 ch, 48 kHz [авторский, Андрей Гаврилов]
Аудио 3: английский, AC3, 192 kbps, 2 ch, 48 kHz [оригинал]
Субтитры: английские
Общее
Уникальный идентификатор : 216186937479892172500242561307487951980 (0xA2A416F328544DE793BA7F292FE2DC6C)
Полное имя : D:VideoОхота на роботов.1984.BDRip.AVC.mkv
Формат : Matroska
Версия формата : Version 4 / Version 2
Размер файла : 2,00 Гбайт
Продолжительность : 1 ч. 40 м.
Общий поток : 2861 Кбит/сек
Название фильма : BDRip -- STarankov
Дата кодирования : UTC 2015-10-14 03:44:50
Программа кодирования : mkvmerge v8.2.0 ('World of Adventure') 64bit
Библиотека кодирования : libebml v1.3.1 + libmatroska v1.4.2
DURATION : 01:36:32.386000000
NUMBER_OF_FRAMES : 1547
NUMBER_OF_BYTES : 47640
_STATISTICS_WRITING_APP : mkvmerge v8.2.0 ('World of Adventure') 64bit
_STATISTICS_WRITING_DATE_UTC : 2015-10-14 03:44:50
_STATISTICS_TAGS : BPS DURATION NUMBER_OF_FRAMES NUMBER_OF_BYTES

Видео
Идентификатор : 1
Формат : AVC
Формат/Информация : Advanced Video Codec
Профиль формата : High@L4.1
Параметр CABAC формата : Да
Параметр ReFrames формата : 9 кадров
Идентификатор кодека : V_MPEG4/ISO/AVC
Продолжительность : 1 ч. 40 м.
Битрейт : 2228 Кбит/сек
Ширина : 1024 пикселя
Высота : 434 пикселя
Соотношение сторон : 2,35:1
Режим частоты кадров : Постоянный
Частота кадров : 23,976 кадра/сек
Цветовое пространство : YUV
Субдискретизация насыщенности : 4:2:0
Битовая глубина : 8 бит
Тип развёртки : Прогрессивная
Бит/(Пиксели*Кадры) : 0.209
Размер потока : 1,56 Гбайт (78%)
Библиотека кодирования : x264 core 146 r2538 121396c
Настройки программы : cabac=1 / ref=9 / deblock=1:-3:-3 / analyse=0x3:0x113 / me=umh / subme=10 / psy=1 / psy_rd=1.00:0.15 / mixed_ref=1 / me_range=32 / chroma_me=1 / trellis=2 / 8x8dct=1 / cqm=0 / deadzone=21,11 / fast_pskip=1 / chroma_qp_offset=-3 / threads=6 / lookahead_threads=1 / sliced_threads=0 / nr=0 / decimate=1 / interlaced=0 / bluray_compat=0 / constrained_intra=0 / bframes=11 / b_pyramid=2 / b_adapt=2 / b_bias=0 / direct=1 / weightb=1 / open_gop=0 / weightp=2 / keyint=230 / keyint_min=23 / scenecut=40 / intra_refresh=0 / rc_lookahead=40 / rc=crf / mbtree=0 / crf=20.5 / qcomp=0.60 / qpmin=0 / qpmax=69 / qpstep=4 / vbv_maxrate=40000 / vbv_bufsize=50000 / crf_max=0.0 / nal_hrd=none / filler=0 / ip_ratio=1.40 / pb_ratio=1.30 / aq=1:1.00
Язык : English
Default : Да
Forced : Нет
DURATION : 01:40:04.332000000
NUMBER_OF_FRAMES : 143960
NUMBER_OF_BYTES : 1713541501
_STATISTICS_WRITING_APP : mkvmerge v8.2.0 ('World of Adventure') 64bit
_STATISTICS_WRITING_DATE_UTC : 2015-10-14 03:44:50
_STATISTICS_TAGS : BPS DURATION NUMBER_OF_FRAMES NUMBER_OF_BYTES

Аудио #1
Идентификатор : 2
Формат : AC-3
Формат/Информация : Audio Coding 3
Расширение режима : CM (complete main)
Параметр Endianness формата : Big
Идентификатор кодека : A_AC3
Продолжительность : 1 ч. 40 м.
Вид битрейта : Постоянный
Битрейт : 192 Кбит/сек
Каналы : 2 канала
Расположение каналов : Front: L R
Частота : 48,0 КГц
Метод сжатия : С потерями
Размер потока : 137 Мбайт (7%)
Заголовок : DVO (Екатеринбург Арт)
Язык : Russian
Default : Да
Forced : Нет

Аудио #2
Идентификатор : 3
Формат : AC-3
Формат/Информация : Audio Coding 3
Профиль формата : Dolby Digital
Расширение режима : CM (complete main)
Параметр Endianness формата : Big
Идентификатор кодека : A_AC3
Продолжительность : 1 ч. 40 м.
Вид битрейта : Постоянный
Битрейт : 192 Кбит/сек
Каналы : 2 канала
Расположение каналов : Front: L R
Частота : 48,0 КГц
Метод сжатия : С потерями
Размер потока : 137 Мбайт (7%)
Заголовок : AVO (Андрей Гаврилов)
Язык : Russian
Default : Нет
Forced : Нет

Аудио #3
Идентификатор : 4
Формат : AC-3
Формат/Информация : Audio Coding 3
Расширение режима : CM (complete main)
Параметр Endianness формата : Big
Идентификатор кодека : A_AC3
Продолжительность : 1 ч. 40 м.
Вид битрейта : Постоянный
Битрейт : 192 Кбит/сек
Каналы : 2 канала
Расположение каналов : Front: L R
Частота : 48,0 КГц
Метод сжатия : С потерями
Размер потока : 137 Мбайт (7%)
Заголовок : Original
Язык : English
Default : Нет
Forced : Нет

Текст
Идентификатор : 5
Формат : UTF-8
Идентификатор кодека : S_TEXT/UTF8
Идентификатор кодека/Информация : UTF-8 Plain Text
Заголовок : английский
Язык : English
Default : Нет
Forced : Нет
pb.wtf



Скачать Охота на роботов через торрент http://i66.fastpic.ru/big/2015/1014/c1/804a7f0bd7597e598bb5b00134da76c1.jpg Скачать фильм Охота на роботов через торрент бесплантно в хорошем качестве Описание: Недалёкое будущее. Полицейский Джек Рамси — сотрудник особого отдела по обезвреживанию поломанных или спятивших роботов. Он ... 9.5 10 13
Торрент: Зарегистрирован [2015-10-14 10:55] · скачан: 54 раз
Статус: √ проверено
Размер: 2 GB
Как cкачать? Как скачать Охота на роботов через торрент | qTorrent

28-11-2019 20:33  

Отключить всю рекламу на сайте

    Дорогой пользователь! Огромная просьба, поблагодарите релизера, оцените раздачу и оставьте свои комментарий, если Вы скачали Охота на роботов через торрент бесплатно! Внесите свою лепту в развитие PiratBit!
    Комментировать посты могут только пользователи прошедшие не сложную регистрацию
    Показать сообщения:    

    Охота на роботов через торрент
    Скачать бесплатно Охота на роботов
    Охота на роботов скачать торрент
    Охота на роботов смотреть онлайн
    Cкачать фильм Охота на роботов бесплатно
    Охота на роботов скачать торрент в хорошем качестве
    Охота на роботов смотреть онлайн бесплатно в хорошем качестве


    Вы не можете начинать темы
    Вы не можете отвечать на сообщения
    Вы не можете редактировать свои сообщения
    Вы не можете удалять свои сообщения
    Вы не можете голосовать в опросах
    Вы не можете прикреплять файлы к сообщениям
    Вы можете скачивать файлы