Ссылка на приватное зеркало нашего сайта всего за 1$. Внимание количество ограничено!!!

2 сезон

iTunes

iTunes

1

iTunes

iTunes

iTunes

WEBRip

iTunes

30
pack

Вам бонус

ВАЖНО

!!Акция!!

Alien_RageХит недели

RePack

Horizon Zero Dawn

ИГРА 18+

pack

RePack

jed

!!Акция!!

Alien_Rage

RePack

fifa19

RePack

Assassins Creed: Odyssey

RePack

NEED FOR SPEED™ PAYBACK

4 сезон

9 сезон

Бесстыжие 9 сезон

Все сериалы

все сериалы на PB.wtf

RePack

FAR CRY 5
  

Алоха / Aloha (Кэмерон Кроу) [2015, драма, мелодрама, комедия, BDRip-AVC] 2x[DUB] [iTunes] + [Eng] + [Sub] pb.wtf

Алоха через торрент pb.wtf

Размер: 2.84 GB | Добавлен: 4 года 11 мес. назад | Торрент скачан:188 раз
Скачать  

28-09-2015 08:09 Алоха Скачать торрент  

Алоха /Aloha
Год выхода: 2015
Жанр: Драма, мелодрама, комедия
Страна: США
Студия: Columbia Pictures, LStar Capital, RatPac Entertainment, Regency Enterprises, Scott Rudin Productions, Sony Pictures Entertainment (SPE), Vinyl Films
Продолжительность: 01:44:38
Перевод: Дублированный (iTunes)
Субтитры: Русские, украинские, английские

Режиссер: Кэмерон Кроу

В ролях: Брэдли Купер, Эмма Стоун, Рэйчел МакАдамс, Билл Мюррэй, Джон Красински, Дэнни МакБрайд, Алек Болдуин, Билл Кэмп, Джейден Либерер, Даниэль Роуз Расселл


Побитый судьбой контрактник получает шанс поправить свою карьеру. Он возвращается на Гавайи для проведения переговоров с местным населением. Драма в том, что здесь же обитает его старая любовь, которая уже вышла замуж; мелодрама - к нему приставлена сопровождающая, влюбленная в него по уши. Трагедия - неуместное обезглавливание Санта-Клауса. Хэппи-энд - без вопросов.



Качество: BDRip-AVC
Формат: MKV
Видео кодек: AVC
Аудио кодек: AC3
Видео: MPEG-4 AVC, 2930 Кбит/с, 1024x552, 25.000 кадр/с
Аудио#1: Russian: AC3, 48 kHz, AC3, 3/2 (L,C,R,l,r) + LFE ch, ~384.00 kbps avg - Дублированный (iTunes)
Аудио#2: Ukrainian: 48 kHz, AC3, 2 (L,R) ch, ~192.00 kbps avg - Дублированный (iTunes)
Аудио#3: English: AC3, 48 kHz, AC3, 3/2 (L,C,R,l,r) + LFE ch, ~384.00 kbps avg - Оригинал

Рип от StarbirS
Формат : Matroska
Версия формата : Version 2
Размер файла : 2,84 Гбайт
Продолжительность : 1 ч. 44 м.
Общий поток : 3892 Кбит/сек
Название фильма : Aloha.2015.x264.BDRip.AVC.Rus.Ukr.Eng
Дата кодирования : UTC 2015-09-22 07:24:49
Программа кодирования : mkvmerge v7.9.0 ('Birds') 64bit
Библиотека кодирования : libebml v1.3.1 + libmatroska v1.4.2

Видео
Идентификатор : 1
Формат : AVC
Формат/Информация : Advanced Video Codec
Профиль формата : High@L4.1
Параметр CABAC формата : Да
Параметр ReFrames формата : 11 кадров
Идентификатор кодека : V_MPEG4/ISO/AVC
Продолжительность : 1 ч. 44 м.
Битрейт : 2930 Кбит/сек
Ширина : 1024 пикселя
Высота : 552 пикселя
Соотношение сторон : 1,85:1
Режим частоты кадров : Постоянный
Частота кадров : 23,976 кадра/сек
Цветовое пространство : YUV
Субдискретизация насыщенности : 4:2:0
Битовая глубина : 8 бит
Тип развёртки : Прогрессивная
Бит/(Пиксели*Кадры) : 0.216
Размер потока : 2,09 Гбайт (73%)
Заголовок : Aloha.2015.x264.BDRip.AVC.Rus.Ukr.Eng.by.StarbirS
Библиотека кодирования : x264 core 146 r2538 121396c
Настройки программы : cabac=1 / ref=11 / deblock=1:-3:-3 / analyse=0x3:0x113 / me=umh / subme=10 / psy=1 / psy_rd=1.05:0.10 / mixed_ref=1 / me_range=48 / chroma_me=1 / trellis=2 / 8x8dct=1 / cqm=0 / deadzone=21,11 / fast_pskip=0 / chroma_qp_offset=-3 / threads=12 / lookahead_threads=2 / sliced_threads=0 / nr=0 / decimate=0 / interlaced=0 / bluray_compat=0 / constrained_intra=0 / bframes=8 / b_pyramid=2 / b_adapt=2 / b_bias=0 / direct=3 / weightb=1 / open_gop=1 / weightp=2 / keyint=240 / keyint_min=23 / scenecut=40 / intra_refresh=0 / rc=2pass / mbtree=0 / bitrate=2930 / ratetol=1.0 / qcomp=0.70 / qpmin=0 / qpmax=69 / qpstep=4 / cplxblur=20.0 / qblur=0.5 / ip_ratio=1.40 / pb_ratio=1.30 / aq=2:0.90
Язык : English
Default : Да
Forced : Нет

Аудио #1
Идентификатор : 2
Формат : AC-3
Формат/Информация : Audio Coding 3
Расширение режима : CM (complete main)
Параметр Endianness формата : Big
Идентификатор кодека : A_AC3
Продолжительность : 1 ч. 44 м.
Вид битрейта : Постоянный
Битрейт : 384 Кбит/сек
Каналы : 6 каналов
Расположение каналов : Front: L C R, Side: L R, LFE
Частота : 48,0 КГц
Метод сжатия : С потерями
Размер потока : 287 Мбайт (10%)
Заголовок : Дублированный (iTunes)
Язык : Russian
Default : Да
Forced : Нет

Аудио #2
Идентификатор : 3
Формат : AC-3
Формат/Информация : Audio Coding 3
Профиль формата : Dolby Digital
Расширение режима : CM (complete main)
Параметр Endianness формата : Big
Идентификатор кодека : A_AC3
Продолжительность : 1 ч. 44 м.
Вид битрейта : Постоянный
Битрейт : 192 Кбит/сек
Каналы : 2 канала
Расположение каналов : Front: L R
Частота : 48,0 КГц
Метод сжатия : С потерями
Размер потока : 144 Мбайт (5%)
Заголовок : Дублированный (iTunes)
Язык : Ukrainian
Default : Нет
Forced : Нет

Аудио #3
Идентификатор : 4
Формат : AC-3
Формат/Информация : Audio Coding 3
Расширение режима : CM (complete main)
Параметр Endianness формата : Big
Идентификатор кодека : A_AC3
Продолжительность : 1 ч. 44 м.
Вид битрейта : Постоянный
Битрейт : 384 Кбит/сек
Каналы : 6 каналов
Расположение каналов : Front: L C R, Side: L R, LFE
Частота : 48,0 КГц
Метод сжатия : С потерями
Размер потока : 287 Мбайт (10%)
Язык : English
Default : Нет
Forced : Нет

Текст #1
Идентификатор : 5
Формат : UTF-8
Идентификатор кодека : S_TEXT/UTF8
Идентификатор кодека/Информация : UTF-8 Plain Text
Заголовок : forced
Язык : Russian
Default : Нет
Forced : Нет

Текст #2
Идентификатор : 6
Формат : UTF-8
Идентификатор кодека : S_TEXT/UTF8
Идентификатор кодека/Информация : UTF-8 Plain Text
Заголовок : full
Язык : Russian
Default : Нет
Forced : Нет

Текст #3
Идентификатор : 7
Формат : UTF-8
Идентификатор кодека : S_TEXT/UTF8
Идентификатор кодека/Информация : UTF-8 Plain Text
Заголовок : forced
Язык : Ukrainian
Default : Нет
Forced : Нет

Текст #4
Идентификатор : 8
Формат : UTF-8
Идентификатор кодека : S_TEXT/UTF8
Идентификатор кодека/Информация : UTF-8 Plain Text
Заголовок : full
Язык : Ukrainian
Default : Нет
Forced : Нет

Текст #5
Идентификатор : 9
Формат : UTF-8
Идентификатор кодека : S_TEXT/UTF8
Идентификатор кодека/Информация : UTF-8 Plain Text
Заголовок : full
Язык : English
Default : Нет
Forced : Нет

Текст #6
Идентификатор : 10
Формат : UTF-8
Идентификатор кодека : S_TEXT/UTF8
Идентификатор кодека/Информация : UTF-8 Plain Text
Заголовок : SDH
Язык : English
Default : Нет
Forced : Нет

Текст #7
Идентификатор : 11
Формат : UTF-8
Идентификатор кодека : S_TEXT/UTF8
Идентификатор кодека/Информация : UTF-8 Plain Text
Заголовок : Cmt
Язык : English
Default : Нет
Forced : Нет

Меню
00:00:00.000 : en:00:00:00.000
00:04:42.949 : en:00:04:42.949
00:10:59.951 : en:00:10:59.951
00:20:02.493 : en:00:20:02.493
00:27:07.751 : en:00:27:07.751
00:33:25.754 : en:00:33:25.754
00:40:01.941 : en:00:40:01.941
00:46:40.631 : en:00:46:40.631
00:51:32.006 : en:00:51:32.006
00:56:22.337 : en:00:56:22.337
01:05:08.696 : en:01:05:08.696
01:11:08.598 : en:01:11:08.598
01:18:44.136 : en:01:18:44.136
01:25:36.423 : en:01:25:36.423
01:31:43.289 : en:01:31:43.289
01:36:29.659 : en:01:36:29.659[/code]
pb.wtf



Скачать Алоха через торрент http://s010.youpic.su/pictures/1436997600/6738592f7cfe6ae924f475d2ff1f9f34.jpg Скачать фильм Алоха через торрент бесплантно в хорошем качестве В ролях: Брэдли Купер, Эмма Стоун, Рэйчел МакАдамс, Билл Мюррэй, Джон Красински, Дэнни МакБрайд, Алек Болдуин, Билл Кэмп, Джейден Либерер, ... 8.3 10 15
Торрент: Зарегистрирован [2015-10-15 14:34] · скачан: 188 раз
Статус: √ проверено
Размер: 2.84 GB
Как cкачать? Как скачать Алоха через торрент | qTorrent

% Раздел Тема Автор DL S | L
Фильмы [HD 720p, 1080p] (Хороший звук DUB, MVO) [ 13.7 GB ] Алоха / Aloha [2015 BDRip 1080p / - ] Ворон Скачать
1 | 0
Фильмы 2015 [DVDrip, WEB-DLRip, HDrip] [ 2.13 GB ] Алоха / Aloha [2015 BDRip-AVC] Dub potroks Скачать
2 | 0
Фильмы 2015 [DVDrip, WEB-DLRip, HDrip] [ 2.04 GB ] Алоха / Aloha [2015 HDRip ""] coc900 Скачать
1 | 0
Фильмы (Blu-ray, BD-Remux, HDDVD) [ 20.24 GB ] Алоха / Aloha [2015 Blu-Ray Remux 1080p / ] Ворон Скачать
1 | 0
Фильмы [HD 720p, 1080p] (Хороший звук DUB, MVO) [ 8.02 GB ] Алоха / Aloha [2015 BDRip 720p / - ] Ворон Скачать
1 | 0
Фильмы 2015 [DVDrip, WEB-DLRip, HDrip] [ 1.41 GB ] Алоха / Aloha [2015 BDRip ] Twi7ter Скачать
1 | 0
Развлекательные телепередачи и шоу, приколы и юмор [ 416 MB ] LOST Шоу Джимми Киммеля в прямом эфире 2010.05.23 / Алоха Lost / Jimmy Kimmel Live 2010.05.23 - Aloha to Lost [2010 Шоу TeleSynch] sasha060 Скачать
1 | 0

28-11-2019 20:33  

Отключить всю рекламу на сайте

    Дорогой пользователь! Огромная просьба, поблагодарите релизера, оцените раздачу и оставьте свои комментарий, если Вы скачали Алоха через торрент бесплатно! Внесите свою лепту в развитие PiratBit!
    Комментировать посты могут только пользователи прошедшие не сложную регистрацию
    Показать сообщения:    

    Алоха через торрент
    Скачать бесплатно Алоха
    Алоха скачать торрент
    Алоха смотреть онлайн
    Cкачать фильм Алоха бесплатно
    Алоха скачать торрент в хорошем качестве
    Алоха смотреть онлайн бесплатно в хорошем качестве


    Вы не можете начинать темы
    Вы не можете отвечать на сообщения
    Вы не можете редактировать свои сообщения
    Вы не можете удалять свои сообщения
    Вы не можете голосовать в опросах
    Вы не можете прикреплять файлы к сообщениям
    Вы можете скачивать файлы