Marvel's Avengers Deluxe Edition (супер цена) 159р. Внимание количество ограничено!!!

2 сезон

iTunes

iTunes

1

iTunes

iTunes

iTunes

WEBRip

iTunes

30
pack

Новость дня

ВАЖНО

!!Акция!!

Alien_RageХит недели

RePack

Horizon Zero Dawn

ИГРА 18+

pack

RePack

jed

!!Акция!!

Alien_Rage

RePack

fifa19

RePack

Assassins Creed: Odyssey

RePack

NEED FOR SPEED™ PAYBACK

4 сезон

9 сезон

Бесстыжие 9 сезон

Все сериалы

все сериалы на PB.wtf

RePack

FAR CRY 5
  

Алоха / Aloha (Кэмерон Кроу) [2015 г., драма, мелодрама, комедия, HDRip, Дубляж "iTunes"] pb.wtf

Алоха через торрент pb.wtf

Размер: 2.04 GB | Добавлен: 4 года 11 мес. назад | Торрент скачан:109 раз
Скачать  

25-09-2015 17:11 Алоха Скачать торрент  

Алоха / Aloha
Год выпуска: 2015
Страна: США / Columbia Pictures, Regency Enterprises, LStar Capital
Жанр: драма, мелодрама, комедия
Продолжительность: 01:44:38
Перевод: Дубляж (iTunes)

Режиссер: Кэмерон Кроу

IMDB 5.50 (19 122)


В ролях: Брэдли Купер, Эмма Стоун, Рэйчел МакАдамс, Билл Мюррей, Джон Красински, Дэнни МакБрайд, Алек Болдуин, Билл Кэмп, Джейден Либерер, Даниэль Роуз Расселл

Описание: 37-летний дискредитированный американский консультант по оружию Брайн Джилкрест не нравится практически всем окружающим его людям. Его единственный друг — техник по имени Джереми — супер умный и хорошо осведомленный компьютерщик.В ответ на агрессию со стороны Китая Джилкреста отправляют на бездействующую военную базу на Гавайях, чтобы оттуда он контролировал запуск современного спутника-шпиона. Это задание сведет его с девушкой по имени Трейси...

Качество: HDRip
Формат: AVI
Видео кодек: XviD
Аудио кодек: AC3
Видео: 720x384 (1.88:1), 23.976 fps, XviD build 50 ~2399 kbps avg, 0.36 bit/pixel
Аудио: 48 kHz, AC3 Dolby Digital, 3/2 (L,C,R,l,r) + LFE ch, ~384 kbps
скриншот   скриншот   скриншот   скриншот   скриншот   скриншот   скриншот   скриншот   скриншот   скриншот  

Общее
Полное имя : F:\кино\Алоха.2015.HDRip.avi
Формат : AVI
Формат/Информация : Audio Video Interleave
Профиль формата : OpenDML
Размер файла : 2,04 Гбайт
Продолжительность : 1 ч. 44 м.
Общий поток : 2790 Кбит/сек
Программа кодирования : VirtualDubMod 1.5.10.3 | www.virtualdub-fr.org || (build 2550/release)
Библиотека кодирования : VirtualDubMod build 2550/release

Видео
Идентификатор : 0
Формат : MPEG-4 Visual
Профиль формата : Advanced Simple@L5
Параметр BVOP формата : 2
Параметр QPel формата : Нет
Параметр GMC формата : Без точки перехода
Параметр матрицы формата : Default (H.263)
Идентификатор кодека : XVID
Идентификатор кодека/Подсказка : XviD
Продолжительность : 1 ч. 44 м.
Битрейт : 2394 Кбит/сек
Ширина : 720 пикселей
Высота : 384 пикселя
Соотношение сторон : 1,85:1
Частота кадров : 23,976 кадра/сек
Цветовое пространство : YUV
Субдискретизация насыщенности : 4:2:0
Битовая глубина : 8 бит
Тип развёртки : Прогрессивная
Метод сжатия : С потерями
Бит/(Пиксели*Кадры) : 0.361
Размер потока : 1,75 Гбайт (86%)
Библиотека кодирования : XviD 1.2.1 (UTC 2008-12-04)

Аудио
Идентификатор : 1
Формат : AC-3
Формат/Информация : Audio Coding 3
Расширение режима : CM (complete main)
Параметр Endianness формата : Big
Идентификатор кодека : 2000
Продолжительность : 1 ч. 44 м.
Вид битрейта : Постоянный
Битрейт : 384 Кбит/сек
Каналы : 6 каналов
Расположение каналов : Front: L C R, Side: L R, LFE
Частота : 48,0 КГц
Метод сжатия : С потерями
Размер потока : 287 Мбайт (14%)
Выравнивание : Разделение по промежуткам
Продолжительность промежутка : 42 мс. (1,00 видеокадр)
Время предзагрузки промежутка : 500 мс.

pb.wtf



Скачать Алоха через торрент http://pic1.kartinco.top/images/10/x674s.jpg Скачать фильм Алоха через торрент бесплантно в хорошем качестве Описание: 37-летний дискредитированный американский консультант по оружию Брайн Джилкрест не нравится практически всем окружающим его ... 8 10 15
Торрент: Зарегистрирован [2015-10-15 14:34] · скачан: 109 раз
Статус: √ проверено
Размер: 2.04 GB
Как cкачать? Как скачать Алоха через торрент | qTorrent

% Раздел Тема Автор DL S | L
Фильмы [HD 720p, 1080p] (Хороший звук DUB, MVO) [ 13.7 GB ] Алоха / Aloha [2015 BDRip 1080p / - ] Ворон Скачать
1 | 0
Фильмы 2015 [DVDrip, WEB-DLRip, HDrip] [ 2.13 GB ] Алоха / Aloha [2015 BDRip-AVC] Dub potroks Скачать
1 | 0
Фильмы 2015 [DVDrip, WEB-DLRip, HDrip] [ 2.84 GB ] Алоха / Aloha [2015 BDRip-AVC] 2x + [Eng] + [Sub] killermax2013 Скачать
1 | 0
Фильмы (Blu-ray, BD-Remux, HDDVD) [ 20.24 GB ] Алоха / Aloha [2015 Blu-Ray Remux 1080p / ] Ворон Скачать
1 | 0
Фильмы [HD 720p, 1080p] (Хороший звук DUB, MVO) [ 8.02 GB ] Алоха / Aloha [2015 BDRip 720p / - ] Ворон Скачать
1 | 0
Фильмы 2015 [DVDrip, WEB-DLRip, HDrip] [ 1.41 GB ] Алоха / Aloha [2015 BDRip ] Twi7ter Скачать
1 | 0
Развлекательные телепередачи и шоу, приколы и юмор [ 416 MB ] LOST Шоу Джимми Киммеля в прямом эфире 2010.05.23 / Алоха Lost / Jimmy Kimmel Live 2010.05.23 - Aloha to Lost [2010 Шоу TeleSynch] sasha060 Скачать
1 | 0

28-11-2019 20:33  

Отключить всю рекламу на сайте

25-09-2015 17:27 Алоха Скачать торрент  

coc900, Исходник рипа какой? и можно увидеть лог кодировки если это не очередная пережатка с готовых рипов.
pb.wtf





Последний раз редактировалось: Ворон (2015-09-25 18:04), всего редактировалось 1 раз

25-09-2015 17:36 Алоха Скачать торрент  

ворон!я же ни чего не говорю, что кто то занимается просто перезаливом готовых риповpb.wtf
!shuller писал(а):

Здесь идет разговор о качестве рипа, а не об авторстве!!!



25-09-2015 17:53 Алоха Скачать торрент  

coc900, Я никогда не позиционирую себя как автор этих рипов. Это разное. Все остальное в лс. Свои рипы я выкладываю и указываю кто автор.pb.wtf



25-09-2015 20:33 Алоха Скачать торрент  

Нудняк, фильм не впечатлил!!!pb.wtf



26-09-2015 19:21 Алоха Скачать торрент  

Ворон писал(а):

coc900, Я никогда не позиционирую себя как автор этих рипов. Это разное. Все остальное в лс. Свои рипы я выкладываю и указываю кто автор.

та все равно фильм полная шляпаpb.wtf



    Дорогой пользователь! Огромная просьба, поблагодарите релизера, оцените раздачу и оставьте свои комментарий, если Вы скачали Алоха через торрент бесплатно! Внесите свою лепту в развитие PiratBit!
    Комментировать посты могут только пользователи прошедшие не сложную регистрацию
    Показать сообщения:    

    Алоха через торрент
    Скачать бесплатно Алоха
    Алоха скачать торрент
    Алоха смотреть онлайн
    Cкачать фильм Алоха бесплатно
    Алоха скачать торрент в хорошем качестве
    Алоха смотреть онлайн бесплатно в хорошем качестве


    Вы не можете начинать темы
    Вы не можете отвечать на сообщения
    Вы не можете редактировать свои сообщения
    Вы не можете удалять свои сообщения
    Вы не можете голосовать в опросах
    Вы не можете прикреплять файлы к сообщениям
    Вы можете скачивать файлы