Ссылка на приватное зеркало всего за 1$. Внимание количество ограничено!!!

OK

1+1

iTunes

мы

OK

1

WEB-DLRip

Джокер

Пифагор

Ведьмак / The Witcher сериал

iTunes

ПШазам

ОК

Оно 2

iTunes

30
pack

Вам бонус

ВАЖНО

!!Акция!!

Alien_RageХит недели

RePack

Resident Evil 21

ИГРА 18+

pack

RePack

jed

RePack

fifa19

RePack

Assassins Creed: Odyssey

RePack

NEED FOR SPEED™ PAYBACK

4 сезон

9 сезон

Бесстыжие 9 сезон

Все сериалы

все сериалы на PB.wtf

RePack

FAR CRY 5
  

Сердце дракона 3: Проклятье чародея / Dragonheart 3: The Sorcerer's Curse (Колин Тиг ) [2015, фэнтези, приключения, HDRip, Дубляж] pb.wtf

Сердце дракона 3: Проклятье чародея через торрент pb.wtf

Размер: 1.37 GB | Добавлен: 4 года 3 мес. назад | Торрент скачан:274 раза
Скачать  

24-03-2015 01:36 Сердце дракона 3: Проклятье чародея Скачать торрент  


Сердце дракона 3: Проклятье чародея / Dragonheart 3: The Sorcerer's Curse


ИНФОРМАЦИЯ:
Год выпуска:2015
Страна: США
Жанр: фэнтези, приключения
Продолжительность: 01:37:11
Перевод: Профессиональный (полное дублирование) [BlueBird]
Режиссер: Колин Тиг

В Ролях:


Бен Кингсли (Drago, озвучка), Джулиан Моррис (Gareth), Тэмзин Мёрчант (Rhonu), Джасса Ахлувалиа (Lorne), Джонджо О’Нил (Brude), Джэйк Каррен (Traevor), Доминик Мафэм (Sir Horsa), Кристофер Фэйрбэнк (Potter), Ozama Oancea (Begilda), Гарри Смит (Kalin), Дэниэл Эверитт-Лок (Cuthbert), Шербан Челя (Sir Wulfric)

ОПИСАНИЕ:
В условной, мифологической Британии идет война между рыцарями, охраняющими южные земли и кельтскими племенами с севера. Их разделяет знаменитый Адрианов Вал. Когда на землю падает звезда, юный и отважный воин Гарет решает отправиться на ее поиски. Ведь согласно легендам, там, куда упала звезда, хранятся несметные сокровища. Он перелезает через стену и оказывается в таинственном северном лесу, населенном колдунами, девами-воительницами и драконами...

  • Мировая премьера:10 февраля 2015

    ТЕХ.ДАННЫЕ:
    Качество: HDRip
    Формат: AVI
    Видео кодек: XviD
    Аудио кодек: AC3
    Видео: XviD, 720x400 (16:9), 1619 kbps, 23,976 fps, 0,223 bpp
    Аудио: AC3 / 5.1 / 48 kHz / 384 kbps / 16 bit



    Код:

    General
    Complete name                            : D:\Торенты\Dragonheart.3.The.Sorcerers.Curse.2015.D.HDRip.1400Mb.avi
    Format                                   : AVI
    Format/Info                              : Audio Video Interleave
    File size                                : 1.37 GiB
    Duration                                 : 1h 37mn
    Overall bit rate                         : 2 013 Kbps
    Writing application                      : VirtualDubMod 1.5.10.2 (build 2540/release)
    Writing library                          : VirtualDubMod build 2540/release

    Video
    ID                                       : 0
    Format                                   : MPEG-4 Visual
    Format profile                           : Advanced Simple@L5
    Format settings, BVOP                    : 2
    Format settings, QPel                    : No
    Format settings, GMC                     : No warppoints
    Format settings, Matrix                  : Default (MPEG)
    Codec ID                                 : XVID
    Codec ID/Hint                            : XviD
    Duration                                 : 1h 37mn
    Bit rate                                 : 1619 Kbps
    Width                                    : 720 pixels
    Height                                   : 400 pixels
    Display aspect ratio                     : 16:9
    Frame rate                               : 23.976 fps
    Color space                              : YUV
    Chroma subsampling                       : 4:2:0
    Bit depth                                : 8 bits
    Scan type                                : Progressive
    Compression mode                         : Lossy
    Bits/(Pixel*Frame)                       : 0.223
    Stream size                              : 1.05 GiB (77%)
    Writing library                          : XviD 1.2.1 (UTC 2008-12-04)

    Audio
    ID                                       : 1
    Format                                   : AC-3
    Format/Info                              : Audio Coding 3
    Mode extension                           : CM (complete main)
    Codec ID                                 : 2000
    Duration                                 : 1h 37mn
    Bit rate mode                            : Constant
    Bit rate                                 : 384 Kbps
    Channel(s)                               : 6 channels
    Channel positions                        : Front: L C R, Side: L R, LFE
    Sampling rate                            : 48.0 KHz
    Bit depth                                : 16 bits
    Compression mode                         : Lossy
    Stream size                              : 267 MiB (19%)
    Alignment                                : Split accross interleaves

    Скриншоты:


    © Оформление by Ворон
    pb.wtf



  • Скачать Сердце дракона 3: Проклятье чародея через торрент http://pic.kartinco.top/images/6/ordi9.jpg Скачать фильм Сердце дракона 3: Проклятье чародея через торрент бесплантно в хорошем качестве Е:В условной, мифологической Британии идет война между рыцарями, охраняющими южные земли и кельтскими племенами с севера. Их разделяет ... 8.9 10 39
    Торрент: Зарегистрирован [2015-10-15 14:33] · скачан: 274 раз
    Статус: √ проверено
    Размер: 1.37 GB
    Как cкачать? Как скачать Сердце дракона 3: Проклятье чародея через торрент | qTorrent

    28-11-2019 20:33  

    Отключить всю рекламу на сайте

    08-08-2015 07:38 Сердце дракона 3: Проклятье чародея Скачать торрент  

    Бред полный, графика убогая, время потрачено зря.pb.wtf



    11-08-2015 18:13 Сердце дракона 3: Проклятье чародея Скачать торрент  

    фильм полный шлак, смотреть не стоит, по 10-и бальной шкале 1!!! nopb.wtf



    17-08-2015 20:58 Сердце дракона 3: Проклятье чародея Скачать торрент  

    ТВ3 снимали похожеpb.wtf



      Дорогой пользователь! Огромная просьба, поблагодарите релизера, оцените раздачу и оставьте свои комментарий, если Вы скачали Сердце дракона 3: Проклятье чародея через торрент бесплатно! Внесите свою лепту в развитие PiratBit!
      Комментировать посты могут только пользователи прошедшие не сложную регистрацию
      Показать сообщения:    

      Сердце дракона 3: Проклятье чародея через торрент
      Скачать бесплатно Сердце дракона 3: Проклятье чародея
      Сердце дракона 3: Проклятье чародея скачать торрент
      Сердце дракона 3: Проклятье чародея смотреть онлайн
      Cкачать фильм Сердце дракона 3: Проклятье чародея бесплатно
      Сердце дракона 3: Проклятье чародея скачать торрент в хорошем качестве
      Сердце дракона 3: Проклятье чародея смотреть онлайн бесплатно в хорошем качестве


      Вы не можете начинать темы
      Вы не можете отвечать на сообщения
      Вы не можете редактировать свои сообщения
      Вы не можете удалять свои сообщения
      Вы не можете голосовать в опросах
      Вы не можете прикреплять файлы к сообщениям
      Вы можете скачивать файлы