Ссылка на приватное зеркало всего за 1$. Внимание количество ограничено!!!

OK

1+1

iTunes

мы

OK

1

WEB-DLRip

Джокер

Пифагор

Ведьмак / The Witcher сериал

iTunes

ПШазам

ОК

Оно 2

iTunes

30
pack

Вам бонус

ВАЖНО

!!Акция!!

Alien_RageХит недели

RePack

Resident Evil 21

ИГРА 18+

pack

RePack

jed

RePack

fifa19

RePack

Assassins Creed: Odyssey

RePack

NEED FOR SPEED™ PAYBACK

4 сезон

9 сезон

Бесстыжие 9 сезон

Все сериалы

все сериалы на PB.wtf

RePack

FAR CRY 5
  

Мир Юрского периода / Jurassic World (Колин Треворроу / Colin Trevorrow) [2015, фантастика, приключения, боевик, BDRip-AVC от potroks] DUB Лицензия pb.wtf

Мир Юрского периода через торрент pb.wtf

Раздают: 2 [ 0 KB/s ]
Размер: 4.37 GB | Добавлен: 4 года 3 мес. назад | Торрент скачан:447 раз
Скачать  

30-09-2015 07:13 Мир Юрского периода Скачать торрент  

Мир Юрского периода / Jurassic World
«Парк откроется»
Год выпуска: 2015
Страна: США, Китай / Universal Pictures, Legendary Pictures, China Film Co.
Жанр: фантастика, приключения, боевик
Продолжительность: 02:04:20
Перевод: Дубляж [BD CEE]
Субтитры: русские (полные +форс.), украинские (полные +форс.), английские (Full + SDH + SDH-Colored)
Навигация по главам: есть
Режиссер: Колин Треворроу / Colin Trevorrow
В ролях:

Крис Пратт (Owen), Брайс Даллас Ховард (Claire), Ник Дж. Робинсон (Zach), Тай Симпкинс (Gray), Винсент Д’Онофрио (Hoskins), Ирфан Кхан (Masrani), Омар Си (Barry), Б.Д. Вонг (Dr. Henry Wu), Джейк Джонсон (Lowery), Джуди Грир (Karen), Кэти МакГрат (Zara), Лорен Лапкус (Vivian)
Описание: Тысячи людей спешат увидеть Мир Юрского периода, но безопасное на первый взгляд развлечение может обернуться угрозой для их жизней...

Качество: BDRip-AVC
Формат: MKV
Видео кодек: AVC
Аудио кодек: AC3
Видео: AVC, 1128x564 (2.000), 4137 kbps, 23,976 fps, 0.271 bit/pixel
Аудио#1: AC3 / 5.1 / 48 kHz / 448 kbps / 16 bit | RUS
Аудио#2: AC3 / 5.1 / 48 kHz / 448 kbps / 16 bit | ENG

Релиз группы:
Автор рипа: potroks

Код:

Общее
Уникальный идентификатор : 226202954365175766352873881052003251421 (0xAA2D1AB581C2A7E292499D8473D934DD)
Полное имя : Mir.Yurskogo.Perioda.2015.DUAL.BDRip.x264.-HELLYWOOD.mkv
Формат : Matroska
Версия формата : Version 4 / Version 2
Размер файла : 4,37 Гбайт
Продолжительность : 2 ч. 4 м.
Общий поток : 5034 Кбит/сек
Название фильма : Jurassic World (2015) - HELLYWOOD
Дата кодирования : UTC 2015-09-30 04:28:33
Программа кодирования : mkvmerge v5.9.0 ('On The Loose') built on Dec 15 2012 16:39:58
Библиотека кодирования : libebml v1.3.0 + libmatroska v1.4.0

Видео
Идентификатор : 1
Формат : AVC
Формат/Информация : Advanced Video Codec
Профиль формата : High@L4.1
Параметр CABAC формата : Да
Параметр ReFrames формата : 10 кадров
Идентификатор кодека : V_MPEG4/ISO/AVC
Продолжительность : 2 ч. 4 м.
Битрейт : 4137 Кбит/сек
Ширина : 1128 пикселей
Высота : 564 пикселя
Соотношение сторон : 2,000
Режим частоты кадров : Постоянный
Частота кадров : 23,976 кадра/сек
Цветовое пространство : YUV
Субдискретизация насыщенности : 4:2:0
Битовая глубина : 8 бит
Тип развёртки : Прогрессивная
Бит/(Пиксели*Кадры) : 0.271
Размер потока : 3,51 Гбайт (80%)
Заголовок : potroks
Библиотека кодирования : x264 core 148 r2597M e86f3a1
Настройки программы : cabac=1 / ref=10 / deblock=1:-3:-3 / analyse=0x3:0x133 / me=umh / subme=11 / psy=1 / psy_rd=1.00:0.00 / mixed_ref=1 / me_range=48 / chroma_me=1 / trellis=2 / 8x8dct=1 / cqm=0 / deadzone=21,11 / fast_pskip=0 / chroma_qp_offset=-2 / threads=9 / lookahead_threads=2 / sliced_threads=0 / nr=0 / decimate=1 / interlaced=0 / bluray_compat=0 / constrained_intra=0 / bframes=11 / b_pyramid=2 / b_adapt=2 / b_bias=0 / direct=3 / weightb=1 / open_gop=0 / weightp=2 / keyint=250 / keyint_min=23 / scenecut=40 / intra_refresh=0 / rc=2pass / mbtree=0 / bitrate=4137 / ratetol=1.0 / qcomp=0.70 / qpmin=0 / qpmax=69 / qpstep=4 / cplxblur=20.0 / qblur=0.5 / ip_ratio=1.40 / pb_ratio=1.30 / aq=1:0.80
Язык : English
Default : Да
Forced : Нет

Аудио #1
Идентификатор : 2
Формат : AC-3
Формат/Информация : Audio Coding 3
Расширение режима : CM (complete main)
Параметр Endianness формата : Big
Идентификатор кодека : A_AC3
Продолжительность : 2 ч. 4 м.
Вид битрейта : Постоянный
Битрейт : 448 Кбит/сек
Каналы : 6 каналов
Расположение каналов : Front: L C R, Side: L R, LFE
Частота : 48,0 КГц
Метод сжатия : С потерями
Размер потока : 398 Мбайт (9%)
Заголовок : Dub | DD 5.1 @ 448 kbps - Blu-Ray CEE
Язык : Russian
Default : Да
Forced : Нет

Аудио #2
Идентификатор : 3
Формат : AC-3
Формат/Информация : Audio Coding 3
Расширение режима : CM (complete main)
Параметр Endianness формата : Big
Идентификатор кодека : A_AC3
Продолжительность : 2 ч. 4 м.
Вид битрейта : Постоянный
Битрейт : 448 Кбит/сек
Каналы : 6 каналов
Расположение каналов : Front: L C R, Side: L R, LFE
Частота : 48,0 КГц
Метод сжатия : С потерями
Размер потока : 398 Мбайт (9%)
Заголовок : Original | DD 5.1 @ 448 kbps
Язык : English
Default : Нет
Forced : Нет

Текст #1
Идентификатор : 4
Формат : UTF-8
Идентификатор кодека : S_TEXT/UTF8
Идентификатор кодека/Информация : UTF-8 Plain Text
Заголовок : Forced
Язык : Russian
Default : Да
Forced : Нет

Текст #2
Идентификатор : 5
Формат : UTF-8
Идентификатор кодека : S_TEXT/UTF8
Идентификатор кодека/Информация : UTF-8 Plain Text
Заголовок : Blu-Ray
Язык : Russian
Default : Нет
Forced : Нет

Текст #3
Идентификатор : 6
Формат : UTF-8
Идентификатор кодека : S_TEXT/UTF8
Идентификатор кодека/Информация : UTF-8 Plain Text
Заголовок : Forced
Язык : Ukrainian
Default : Нет
Forced : Нет

Текст #4
Идентификатор : 7
Формат : UTF-8
Идентификатор кодека : S_TEXT/UTF8
Идентификатор кодека/Информация : UTF-8 Plain Text
Заголовок : Blu-Ray
Язык : Ukrainian
Default : Нет
Forced : Нет

Текст #5
Идентификатор : 8
Формат : UTF-8
Идентификатор кодека : S_TEXT/UTF8
Идентификатор кодека/Информация : UTF-8 Plain Text
Заголовок : Full
Язык : English
Default : Нет
Forced : Нет

Текст #6
Идентификатор : 9
Формат : UTF-8
Идентификатор кодека : S_TEXT/UTF8
Идентификатор кодека/Информация : UTF-8 Plain Text
Заголовок : SDH
Язык : English
Default : Нет
Forced : Нет

Текст #7
Идентификатор : 10
Формат : UTF-8
Идентификатор кодека : S_TEXT/UTF8
Идентификатор кодека/Информация : UTF-8 Plain Text
Заголовок : SDH-Colored
Язык : English
Default : Нет
Forced : Нет

Меню
00:00:00.000 : :(01)00:00:00:000
00:06:59.168 : :(02)00:06:59:168
00:11:01.827 : :(03)00:11:01:827
00:18:28.440 : :(04)00:18:28:440
00:25:34.866 : :(05)00:25:34:866
00:31:20.837 : :(06)00:31:20:837
00:39:23.861 : :(07)00:39:23:861
00:44:07.853 : :(08)00:44:07:853
00:48:57.225 : :(09)00:48:57:225
00:55:51.056 : :(10)00:55:51:056
01:01:21.344 : :(11)01:01:21:344
01:09:50.560 : :(12)01:09:50:561
01:15:25.479 : :(13)01:15:25:479
01:23:51.860 : :(14)01:23:51:860
01:30:14.700 : :(15)01:30:14:700
01:36:45.424 : :(16)01:36:45:424
01:41:15.652 : :(17)01:41:15:652
01:47:35.282 : :(18)01:47:35:282
01:53:06.029 : :(19)01:53:06:029
01:55:37.555 : :(20)01:55:37:555

pb.wtf



Скачать Мир Юрского периода через торрент http://i66.fastpic.ru/big/2015/0929/d6/51610d7e63cfb4c3fa91838b0b11ccd6.png Скачать фильм Мир Юрского периода через торрент бесплантно в хорошем качестве Описание: Тысячи людей спешат увидеть Мир Юрского периода, но безопасное на первый взгляд развлечение может обернуться угрозой для их ... 10 10 16
Торрент: Зарегистрирован [2015-10-15 14:30] · скачан: 447 раз
Статус: √ проверено
Размер: 4.37 GB
Как cкачать? Как скачать Мир Юрского периода через торрент | qTorrent

% Раздел Тема Автор DL S | L
Фильмы (HD 720p, 1080p) (48-60 fps) [ 10.62 GB ] Мир Юрского периода 2 / Jurassic World: Fallen Kingdom [2018 BDRip 1080p 60 fps] DUB [] bober100 Скачать
1 | 0
Фильмы (Blu-ray, BD-Remux, HDDVD) [ 41.63 GB ] Мир Юрского периода 2 / Jurassic World: Fallen Kingdom [2018 Blu-ray EUR 1080p] DUB [] bober100 Скачать
1 | 0
Ultra HD (UHD: 2K, 4K, 8K) — видео сверхвысокой чёткости [ 45.3 GB ] Мир Юрского периода 2 / Jurassic World: Fallen Kingdom [2018 UHD BDRemux 2160p] DUB [] sheker187 Скачать
1 | 0
Ultra HD (UHD: 2K, 4K, 8K) — видео сверхвысокой чёткости [ 8.43 GB ] Мир Юрского периода 2 / Jurassic World: Fallen Kingdom [2018 UHD BDRip 2160p] DUB [] sheker187 Скачать
2 | 0
Ultra HD (UHD: 2K, 4K, 8K) — видео сверхвысокой чёткости [ 19.64 GB ] Мир Юрского периода 2 / Jurassic World: Fallen Kingdom [2018 UHD BDRip 2160p] [SDR] DUB [] sheker187 Скачать
1 | 0
Ultra HD (UHD: 2K, 4K, 8K) — видео сверхвысокой чёткости [ 53.07 GB ] Мир Юрского периода / Jurassic World [2015 UHD BDRemux 2160p] AVO [А.Гаврилов] +DUB [] bober100 Скачать
2 | 0
Фильмы 2015 [DVDrip, WEB-DLRip, HDrip] [ 1.46 GB ] Мир Юрского периода / Jurassic World [2015 BDRip] DUB Twi7ter Скачать
3 | 0

28-11-2019 20:33  

Отключить всю рекламу на сайте

30-09-2015 09:39 Мир Юрского периода Скачать торрент  

дайте скорости!!!!!!!!!!!!!!плиззpb.wtf



    Дорогой пользователь! Огромная просьба, поблагодарите релизера, оцените раздачу и оставьте свои комментарий, если Вы скачали Мир Юрского периода через торрент бесплатно! Внесите свою лепту в развитие PiratBit!
    Комментировать посты могут только пользователи прошедшие не сложную регистрацию
    Показать сообщения:    

    Мир Юрского периода через торрент
    Скачать бесплатно Мир Юрского периода
    Мир Юрского периода скачать торрент
    Мир Юрского периода смотреть онлайн
    Cкачать фильм Мир Юрского периода бесплатно
    Мир Юрского периода скачать торрент в хорошем качестве
    Мир Юрского периода смотреть онлайн бесплатно в хорошем качестве


    Вы не можете начинать темы
    Вы не можете отвечать на сообщения
    Вы не можете редактировать свои сообщения
    Вы не можете удалять свои сообщения
    Вы не можете голосовать в опросах
    Вы не можете прикреплять файлы к сообщениям
    Вы можете скачивать файлы