Ссылка на приватное зеркало нашего сайта всего за 1$. Внимание количество ограничено!!!

2 сезон

iTunes

iTunes

1

iTunes

iTunes

iTunes

WEBRip

iTunes

30
pack

Вам бонус

ВАЖНО

!!Акция!!

Alien_RageХит недели

RePack

Horizon Zero Dawn

ИГРА 18+

pack

RePack

jed

!!Акция!!

Alien_Rage

RePack

fifa19

RePack

Assassins Creed: Odyssey

RePack

NEED FOR SPEED™ PAYBACK

4 сезон

9 сезон

Бесстыжие 9 сезон

Все сериалы

все сериалы на PB.wtf

RePack

FAR CRY 5
  

Супер Майк XXL / Magic Mike XXL (Грегори Джейкобс / Gregory Jacobs) [2015, комедия, музыка, драма, BDRip-AVC от potroks] DUB Лицензия pb.wtf

Супер Майк XXL через торрент pb.wtf

Размер: 2.18 GB | Добавлен: 4 года 10 мес. назад | Торрент скачан:61 раз
Скачать  

07-10-2015 06:59 Супер Майк XXL Скачать торрент  

Супер Майк XXL / Magic Mike XXL
«Back to the grind»
Год выпуска: 2015
Страна: США / Warner Bros. Pictures, Iron Horse Entertainment (II)
Жанр: комедия, музыка, драма
Продолжительность: 01:55:17
Перевод: Дубляж [BD CEE]
Субтитры: русские (Forced), русские, украинские (Forced), английские (Full), английские (SDH)
Навигация по главам: есть
Режиссер: Грегори Джейкобс / Gregory Jacobs
В ролях:

Ченнинг Татум (Mike), Джо Манганьелло (Big Dick Richie), Мэтт Бомер (Ken), Кевин Нэш (Tarzan), Эмбер Хёрд Депп (Zoe), Элизабет Бэнкс (Paris), Адам Родригес (Tito), Габриэль Иглесиас (Tobias), Энди МакДауэлл (Nancy Davidson), Джада Пинкетт Смит (Rome), Джейн МакНейлл (Mae), Дональд Гловер (Andre)
Описание: Прошло три года после того, как Майк на пике своей популярности закончил карьеру стриптизера, а клуб «Короли Тампы» уже почти готов признать свое поражение. Но проделать это в своем стиле: готовясь «зажечь» Мёртл-Бич, они снова разделят сцену с легендарным Супер Майком. Дорога на последнее шоу проходит через Джеконсвилл и Саванну, где Майк и парни повстречают старых знакомых и заведут новых, а также выучат пару неизбитых движений, тряхнув при этом стариной.

Качество: BDRip-AVC
Формат: MKV
Видео кодек: AVC
Аудио кодек: AC3
Видео: AVC, 1048x440 (2.40:1), 1812 kbps, 23,976 fps, 0,164 bit/pixel
Аудио №1: AC3 / 5.1 / 48 kHz / 448 kbps / 16 bit | RUS
Аудио №2: AC3 / 5.1 / 48 kHz / 448 kbps / 16 bit | ENG

Релиз группы:
Автор рипа: potroks

Код:

General
Unique ID                   : 237738974541430170014358730195173043396 (0xB2DADC6A9BECDC159B78F82D7136ECC4)
Complete name               : Super.Maik.2015.DUAL.BDRip.x264.-HELLYWOOD.mkv
Format                      : Matroska
Format version              : Version 4 / Version 2
File size                   : 2.18 GiB
Duration                    : 1h 55mn
Overall bit rate            : 2 709 Kbps
Movie name                  : Magic Mike XXL (2015) - HELLYWOOD
Encoded date                : UTC 2010-02-22 21:41:31
Writing application         : mkvmerge v5.8.0 ('No Sleep / Pillow') built on Sep 30 2012 10:57:14
Writing library             : libebml v1.3.0 + libmatroska v1.4.0

Video
ID                          : 1
Format                      : AVC
Format/Info                 : Advanced Video Codec
Format profile              : High@L4.1
Format settings, CABAC      : Yes
Format settings, ReFrames   : 10 frames
Codec ID                    : V_MPEG4/ISO/AVC
Duration                    : 1h 55mn
Bit rate                    : 1 812 Kbps
Width                       : 1 048 pixels
Height                      : 440 pixels
Display aspect ratio        : 2.40:1
Frame rate mode             : Constant
Frame rate                  : 23.976 fps
Color space                 : YUV
Chroma subsampling          : 4:2:0
Bit depth                   : 8 bits
Scan type                   : Progressive
Bits/(Pixel*Frame)          : 0.164
Stream size                 : 1.42 GiB (65%)
Title                       : potroks
Writing library             : x264 core 148 r2597M e86f3a1
Encoding settings           : cabac=1 / ref=10 / deblock=1:-3:-3 / analyse=0x3:0x133 / me=umh / subme=11 / psy=1 / psy_rd=1.00:0.00 / mixed_ref=1 / me_range=48 / chroma_me=1 / trellis=2 / 8x8dct=1 / cqm=0 / deadzone=21,11 / fast_pskip=0 / chroma_qp_offset=-2 / threads=10 / lookahead_threads=2 / sliced_threads=0 / nr=0 / decimate=1 / interlaced=0 / bluray_compat=0 / constrained_intra=0 / bframes=11 / b_pyramid=2 / b_adapt=2 / b_bias=0 / direct=3 / weightb=1 / open_gop=0 / weightp=2 / keyint=250 / keyint_min=23 / scenecut=40 / intra_refresh=0 / rc=2pass / mbtree=0 / bitrate=1812 / ratetol=1.0 / qcomp=0.70 / qpmin=0 / qpmax=69 / qpstep=4 / cplxblur=20.0 / qblur=0.5 / ip_ratio=1.40 / pb_ratio=1.30 / aq=1:0.80
Language                    : English
Default                     : Yes
Forced                      : No

Audio #1
ID                          : 2
Format                      : AC-3
Format/Info                 : Audio Coding 3
Mode extension              : CM (complete main)
Format settings, Endianness : Big
Codec ID                    : A_AC3
Duration                    : 1h 55mn
Bit rate mode               : Constant
Bit rate                    : 448 Kbps
Channel(s)                  : 6 channels
Channel positions           : Front: L C R, Side: L R, LFE
Sampling rate               : 48.0 KHz
Compression mode            : Lossy
Stream size                 : 369 MiB (17%)
Title                       : Dub | DD 5.1 @ 448 kbps - Blu-Ray CEE
Language                    : Russian
Default                     : Yes
Forced                      : No

Audio #2
ID                          : 3
Format                      : AC-3
Format/Info                 : Audio Coding 3
Mode extension              : CM (complete main)
Format settings, Endianness : Big
Codec ID                    : A_AC3
Duration                    : 1h 55mn
Bit rate mode               : Constant
Bit rate                    : 448 Kbps
Channel(s)                  : 6 channels
Channel positions           : Front: L C R, Side: L R, LFE
Sampling rate               : 48.0 KHz
Compression mode            : Lossy
Stream size                 : 369 MiB (17%)
Title                       : Original | DD 5.1 @ 448 kbps
Language                    : English
Default                     : No
Forced                      : No

Text #1
ID                          : 4
Format                      : UTF-8
Codec ID                    : S_TEXT/UTF8
Codec ID/Info               : UTF-8 Plain Text
Title                       : Forced
Language                    : Russian
Default                     : Yes
Forced                      : No

Text #2
ID                          : 5
Format                      : UTF-8
Codec ID                    : S_TEXT/UTF8
Codec ID/Info               : UTF-8 Plain Text
Title                       : iTunes
Language                    : Russian
Default                     : No
Forced                      : No

Text #3
ID                          : 6
Format                      : UTF-8
Codec ID                    : S_TEXT/UTF8
Codec ID/Info               : UTF-8 Plain Text
Title                       : Forced
Language                    : Ukrainian
Default                     : No
Forced                      : No

Text #4
ID                          : 7
Format                      : UTF-8
Codec ID                    : S_TEXT/UTF8
Codec ID/Info               : UTF-8 Plain Text
Title                       : Full
Language                    : English
Default                     : No
Forced                      : No

Text #5
ID                          : 8
Format                      : UTF-8
Codec ID                    : S_TEXT/UTF8
Codec ID/Info               : UTF-8 Plain Text
Title                       : SDH
Language                    : English
Default                     : No
Forced                      : No

Menu
00:00:00.000                : :(01)00:00:00:000
00:07:13.014                : :(02)00:07:13:014
00:09:48.962                : :(03)00:09:48:962
00:13:42.153                : :(04)00:13:42:153
00:17:40.851                : :(05)00:17:40:851
00:26:06.397                : :(06)00:26:06:397
00:33:33.553                : :(07)00:33:33:553
00:35:46.978                : :(08)00:35:46:978
00:40:59.664                : :(09)00:40:59:664
00:45:20.717                : :(10)00:45:20:717
00:47:46.487                : :(11)00:47:46:487
00:49:36.681                : :(12)00:49:36:681
00:55:17.188                : :(13)00:55:17:188
00:59:24.184                : :(14)00:59:24:184
01:03:31.932                : :(15)01:03:31:932
01:09:03.595                : :(16)01:09:03:595
01:15:04.166                : :(17)01:15:04:166
01:20:50.470                : :(18)01:20:50:470
01:25:05.975                : :(19)01:25:05:975
01:29:29.572                : :(20)01:29:29:572
01:31:53.131                : :(21)01:31:53:131
01:34:18.778                : :(22)01:34:18:778
01:37:09.863                : :(23)01:37:09:863
01:40:30.733                : :(24)01:40:30:733
01:44:10.243                : :(25)01:44:10:243
01:49:02.243                : :(26)01:49:02:243
01:51:01.112                : :(27)01:51:01:112

pb.wtf



Скачать Супер Майк XXL через торрент http://i67.fastpic.ru/big/2015/1007/f0/347f7f2912132bd204de547c8c8190f0.png Скачать фильм Супер Майк XXL через торрент бесплантно в хорошем качестве Описание: Прошло три года после того, как Майк на пике своей популярности закончил карьеру стриптизера, а клуб «Короли Тампы» уже почти ... 7.6 10 14
Info! Серебряная раздача, засчитывается только 50% скачанного.
Торрент: Зарегистрирован [2015-11-01 06:47] · скачан: 61 раз
Статус: √ проверено
Размер: 2.18 GB
Как cкачать? Как скачать Супер Майк XXL через торрент | qTorrent

% Раздел Тема Автор DL S | L
Фильмы 2015 [DVDrip, WEB-DLRip, HDrip] [ 2.18 GB ] Супер Майк XXL / Magic Mike XXL [2015 музыка BDRip-AVC от sokol_ok] DUB sokol_ok Скачать
2 | 0
Фильмы 2015 [DVDrip, WEB-DLRip, HDrip] [ 1.46 GB ] Супер Майк XXL / Magic Mike XXL [2015 музыка BDRip-AVC от sokol_ok] DUB sokol_ok Скачать
3 | 0

28-11-2019 20:33  

Отключить всю рекламу на сайте

    Дорогой пользователь! Огромная просьба, поблагодарите релизера, оцените раздачу и оставьте свои комментарий, если Вы скачали Супер Майк XXL через торрент бесплатно! Внесите свою лепту в развитие PiratBit!
    Комментировать посты могут только пользователи прошедшие не сложную регистрацию
    Показать сообщения:    

    Супер Майк XXL через торрент
    Скачать бесплатно Супер Майк XXL
    Супер Майк XXL скачать торрент
    Супер Майк XXL смотреть онлайн
    Cкачать фильм Супер Майк XXL бесплатно
    Супер Майк XXL скачать торрент в хорошем качестве
    Супер Майк XXL смотреть онлайн бесплатно в хорошем качестве


    Вы не можете начинать темы
    Вы не можете отвечать на сообщения
    Вы не можете редактировать свои сообщения
    Вы не можете удалять свои сообщения
    Вы не можете голосовать в опросах
    Вы не можете прикреплять файлы к сообщениям
    Вы можете скачивать файлы