Ссылка на приватное зеркало всего за 1$. Внимание количество ограничено!!!

OK

1+1

iTunes

мы

OK

1

WEB-DLRip

Джокер

Пифагор

Ведьмак / The Witcher сериал

iTunes

ПШазам

ОК

Оно 2

iTunes

30
pack

Вам бонус

ВАЖНО

!!Акция!!

Alien_RageХит недели

RePack

Resident Evil 21

ИГРА 18+

pack

RePack

jed

RePack

fifa19

RePack

Assassins Creed: Odyssey

RePack

NEED FOR SPEED™ PAYBACK

4 сезон

9 сезон

Бесстыжие 9 сезон

Все сериалы

все сериалы на PB.wtf

RePack

FAR CRY 5
  

Идеальный голос 2 / Pitch Perfect 2 (Элизабет Бэнкс) [2015, комедия, музыка, HDRip] DUB - Лицензия / iTunes pb.wtf

Идеальный голос 2 через торрент pb.wtf

Размер: 1.46 GB | Добавлен: 4 года 3 мес. назад | Торрент скачан:114 раз
Скачать  

12-08-2015 22:25 Идеальный голос 2 Скачать торрент  

Идеальный голос 2 / Pitch Perfect 2
«Самые крутые девчонки возвращаются»


Год выпуска: 2015
Страна: США
Жанр: комедия, музыка
Продолжительность: 01:54:46
Перевод: Дубляж - [Лицензия / iTunes]
Режиссер: Элизабет Бэнкс
В ролях: Анна Кендрик (Beca), Ребел Уилсон (Fat Amy), Хейли Стайнфелд (Emily), Бриттани Сноу (Chloe), Скайлар Эстин (Jesse), Адам Дивайн (Bumper), Кэти Сагал (Katherine), Анна Кэмп (Aubrey), Бен Платт (Benji), Алексис Нэп (Stacie), Хана Мэй Ли (Lilly), Эстер Дин (Cynthia Rose)
Описание:
Самые крутые девчонки возвращаются! Теперь у них все по-взрослому: ремиксы - моднее, каблуки - выше, юбки - короче. Но идеальный голос всегда на месте.
, MPAA: PG-13 - Детям до 13 лет просмотр не желателен
Качество: HDRip
Формат: AVI
Видео кодек: XviD
Аудио кодек: AC3
Видео: XviD, 720x384 (1.875), 1428 kbps, 23,976 fps, 0,216 bpp
Аудио: AC3 / 5.1 / 48 kHz / 384 kbps / 16 bit

Код:

General
Complete name                            : E:\торент\1delaniy.Golos.2.2015.D.HDRip.1400MB.avi
Format                                   : AVI
Format/Info                              : Audio Video Interleave
File size                                : 1.46 GiB
Duration                                 : 1h 54mn
Overall bit rate                         : 1 822 Kbps
Writing application                      : VirtualDubMod 1.5.10.3 | www.virtualdub-fr.org || (build 2550/release)
Writing library                          : VirtualDubMod build 2550/release

Video
ID                                       : 0
Format                                   : MPEG-4 Visual
Format profile                           : Advanced Simple@L5
Format settings, BVOP                    : 2
Format settings, QPel                    : No
Format settings, GMC                     : No warppoints
Format settings, Matrix                  : Default (MPEG)
Codec ID                                 : XVID
Codec ID/Hint                            : XviD
Duration                                 : 1h 54mn
Bit rate                                 : 1 429 Kbps
Width                                    : 720 pixels
Height                                   : 384 pixels
Display aspect ratio                     : 1.875
Frame rate                               : 23.976 fps
Color space                              : YUV
Chroma subsampling                       : 4:2:0
Bit depth                                : 8 bits
Scan type                                : Progressive
Compression mode                         : Lossy
Bits/(Pixel*Frame)                       : 0.216
Stream size                              : 1.15 GiB (78%)
Writing library                          : XviD 1.2.1 (UTC 2008-12-04)

Audio
ID                                       : 1
Format                                   : AC-3
Format/Info                              : Audio Coding 3
Mode extension                           : CM (complete main)
Codec ID                                 : 2000
Duration                                 : 1h 54mn
Bit rate mode                            : Constant
Bit rate                                 : 384 Kbps
Channel(s)                               : 6 channels
Channel positions                        : Front: L C R, Side: L R, LFE
Sampling rate                            : 48.0 KHz
Bit depth                                : 16 bits
Compression mode                         : Lossy
Stream size                              : 315 MiB (21%)
Alignment                                : Split accross interleaves
Interleave, duration                     : 42 ms (1.00 video frame)
Interleave, preload duration             : 500 ms

pb.wtf



Скачать Идеальный голос 2 через торрент http://pic1.kartinco.top/images/10/sthi5.jpg Скачать фильм Идеальный голос 2 через торрент бесплантно в хорошем качестве Описание: Самые крутые девчонки возвращаются! Теперь у них все по-взрослому: ремиксы - моднее, каблуки - выше, юбки - короче. Но идеальный ... 8.3 10 50
Торрент: Зарегистрирован [2015-10-15 14:28] · скачан: 114 раз
Статус: √ проверено
Размер: 1.46 GB
Как cкачать? Как скачать Идеальный голос 2 через торрент | qTorrent

28-11-2019 20:33  

Отключить всю рекламу на сайте

24-08-2015 17:56 Идеальный голос 2 Скачать торрент  

Ну как фильмец, 945 чел. скачали и не одного комента.pb.wtf



24-08-2015 18:09 Идеальный голос 2 Скачать торрент  

Все обалдеть прост)pb.wtf



31-08-2015 00:25 Идеальный голос 2 Скачать торрент  

Как первую так и вторую часть можно пересматривать и не один раз ради музыкальных номеров только первая мне больше понравилась но и тут есть шикарные моментыpb.wtf



03-09-2015 18:51 Идеальный голос 2 Скачать торрент  

pb.wtf



06-09-2015 07:29 Идеальный голос 2 Скачать торрент  

Раздающему огромное спасибо за труд. Но супруга сказала, ещё раз скачаешь такое г..но, кормить не буду pb.wtf



    Дорогой пользователь! Огромная просьба, поблагодарите релизера, оцените раздачу и оставьте свои комментарий, если Вы скачали Идеальный голос 2 через торрент бесплатно! Внесите свою лепту в развитие PiratBit!
    Комментировать посты могут только пользователи прошедшие не сложную регистрацию
    Показать сообщения:    

    Идеальный голос 2 через торрент
    Скачать бесплатно Идеальный голос 2
    Идеальный голос 2 скачать торрент
    Идеальный голос 2 смотреть онлайн
    Cкачать фильм Идеальный голос 2 бесплатно
    Идеальный голос 2 скачать торрент в хорошем качестве
    Идеальный голос 2 смотреть онлайн бесплатно в хорошем качестве


    Вы не можете начинать темы
    Вы не можете отвечать на сообщения
    Вы не можете редактировать свои сообщения
    Вы не можете удалять свои сообщения
    Вы не можете голосовать в опросах
    Вы не можете прикреплять файлы к сообщениям
    Вы можете скачивать файлы