Ссылка на приватное зеркало всего за 1$. Внимание количество ограничено!!!

OK

1+1

iTunes

мы

OK

1

WEB-DLRip

Джокер

Пифагор

Ведьмак / The Witcher сериал

Лицензия

ПШазам

ОК

Оно 2

iTunes

30
pack

Вам бонус

ВАЖНО

!!Акция!!

Alien_RageХит недели

RePack

Resident Evil 21

ИГРА 18+

pack

RePack

jed

RePack

fifa19

RePack

Assassins Creed: Odyssey

RePack

NEED FOR SPEED™ PAYBACK

4 сезон

9 сезон

Бесстыжие 9 сезон

Все сериалы

все сериалы на PB.wtf

RePack

FAR CRY 5
  

Разлом Сан-Андреас / San Andreas (боевик, триллер, драма) [2015 г., боевик, триллер, драма, HDRip by Dean24] (Дубляж Лицензия) pb.wtf

Разлом Сан-Андреас через торрент pb.wtf

Размер: 1.76 GB | Добавлен: 4 года 3 мес. назад | Торрент скачан:211 раз
Скачать  

10-10-2015 17:40 Разлом Сан-Андреас Скачать торрент  

Разлом Сан-Андреас / San AndreasГод выпуска: 2015
Страна: США, Австралия, Канада
Жанр: боевик, триллер, драма
Продолжительность: 01:54:28
Перевод: Дубляж, Лицензия | BD CEE
Субтитры: Нет

Режиссер: боевик, триллер, драма
Продюссер: Бо Флинн,Брюс Берман, Хирам Гарсиа, Ричард Бренер
Сценарий: Карлтон Кьюз

Бюджет: 110 000 000 $
Премьера в мире: 21 мая 2015



В ролях: Дуэйн Джонсон, Карла Гуджино, Александра Даддарио, Йоан Гриффит, Арчи Панджаби, Пол Джаматти, Хьюго Джонстон-Барт, Арт Паркинсон, Уилл Юн Ли, Кайли Миноуг, Колтон Хэйнс, Тодд Уильямс, Мэтт Джералд, Алек Утгофф, Марисса Нейтлинг, Морган Гриффин, Бриэнн Хилл, Лоуренс Кой, Фиона Пресс, Дэннис Корд

Описание: Рэй — пилот спасательного вертолета, который всю свою жизнь помогал другим людям. За все время работы он насмотрелся на множество жутких вещей и не раз оказывался в очень сложных ситуациях. Несмотря на все преграды он спешил на помощь, даже не предполагая, что самое страшное ждет его впереди. На Калифорнию обрушивается мощное землетрясение, в результате которого гибнут сотни людей и образовывается огромная трещина в земле. Во всеобщем хаосе Рэю предстоит отыскать свою дочь, но сделать это будет очень непросто. В надежде, что его ребенок все еще жив, он отправляется в смертельно опасное путешествие через весь штат…

Качество: HDRip | BDRip 720p
Формат: AVI
Видео кодек: XviD
Аудио кодек: AC3
Видео: 720x304 (2.37:1), 23.976 fps, XviD build 50 ~1809 kbps avg, 0.34 bit/pixel
Аудио: 48 kHz, AC3 Dolby Digital, 3/2 (L,C,R,l,r) + LFE ch, ~384 kbps



Автор рипа: Dean24
|
Общее
Полное имя : D:\Мои документы\Фильмы\Сайт\San.Andreas.HDRip.avi
Формат : AVI
Формат/Информация : Audio Video Interleave
Размер файла : 1,76 Гбайт
Продолжительность : 1 ч. 54 м.
Общий поток : 2203 Кбит/сек
Программа кодирования : VirtualDubMod 1.5.10.3 | www.virtualdub-fr.org || (build 2550/release)
Библиотека кодирования : VirtualDubMod build 2550/release

Видео
Идентификатор : 0
Формат : MPEG-4 Visual
Профиль формата : Advanced Simple@L5
Параметр BVOP формата : 3
Параметр QPel формата : Нет
Параметр GMC формата : Без точки перехода
Параметр матрицы формата : Default (H.263)
Идентификатор кодека : XVID
Идентификатор кодека/Подсказка : XviD
Продолжительность : 1 ч. 54 м.
Битрейт : 1810 Кбит/сек
Ширина : 720 пикселей
Высота : 304 пикселя
Соотношение сторон : 2,35:1
Частота кадров : 23,976 кадра/сек
Цветовое пространство : YUV
Субдискретизация насыщенности : 4:2:0
Битовая глубина : 8 бит
Тип развёртки : Прогрессивная
Метод сжатия : С потерями
Бит/(Пиксели*Кадры) : 0.345
Размер потока : 1,45 Гбайт (82%)
Библиотека кодирования : XviD 1.2.1 (UTC 2008-12-04)

Аудио
Идентификатор : 1
Формат : AC-3
Формат/Информация : Audio Coding 3
Расширение режима : CM (complete main)
Параметр Endianness формата : Big
Идентификатор кодека : 2000
Продолжительность : 1 ч. 54 м.
Вид битрейта : Постоянный
Битрейт : 384 Кбит/сек
Каналы : 6 каналов
Расположение каналов : Front: L C R, Side: L R, LFE
Частота : 48,0 КГц
Битовая глубина : 16 бит
Метод сжатия : С потерями
Размер потока : 314 Мбайт (17%)
Выравнивание : Разделение по промежуткам
Продолжительность промежутка : 42 мс. (1,00 видеокадр)
Время предзагрузки промежутка : 500 мс.

pb.wtf



Скачать Разлом Сан-Андреас через торрент http://i69.fastpic.ru/big/2015/1010/9b/ac8ec6cdd3b63a148355814e4cb1609b.png Скачать фильм Разлом Сан-Андреас через торрент бесплантно в хорошем качестве Описание: Рэй — пилот спасательного вертолета, который всю свою жизнь помогал другим людям. За все время работы он насмотрелся на множество ... 9.4 10 17
Торрент: Зарегистрирован [2015-10-13 10:18] · скачан: 211 раз
Статус: √ проверено
Размер: 1.76 GB
Как cкачать? Как скачать Разлом Сан-Андреас через торрент | qTorrent

% Раздел Тема Автор DL S | L
Фильмы [HD 720p, 1080p] (Хороший звук DUB, MVO) [ 5.03 GB ] Разлом Сан-Андреас / San Andreas [2015 BDRip 1080p HEVC ()] Мичман37 Скачать
1 | 0
Ultra HD (UHD: 2K, 4K, 8K) — видео сверхвысокой чёткости [ 55.75 GB ] Разлом Сан-Андреас / San Andreas [2015 UHD BDRemux 2160p] DUB + AVO [А. Гаврилов] sheker187 Скачать
1 | 0
Ultra HD (UHD: 2K, 4K, 8K) — видео сверхвысокой чёткости [ 48.13 GB ] Разлом Сан-Андреас / San Andreas [2015 UHD BDRemux 2160p] DUB [] bober100 Скачать
1 | 0
Фильмы (HD 720p, 1080p) (48-60 fps) [ 6.51 GB ] Разлом Сан-Андреас / San Andreas [2015 BDRip 720p 60 fps от еnvy / NNNB] DUB еnvy Скачать
9 | 1
Фильмы 2015 [DVDrip, WEB-DLRip, HDrip] [ 3.43 GB ] Разлом Сан-Андреас / San Andreas [2015 BDRip-AVC Авторский одноголосый Андрей Гаврилов] от ExKinoRay morfyi Скачать
2 | 0
Ultra HD (UHD: 2K, 4K, 8K) — видео сверхвысокой чёткости [ 21.4 GB ] Разлом Сан-Андреас / San Andreas [2015 UHD WEBRip 2160p] [USA Transfer] DUB [] bober100 Скачать
1 | 0
Фильмы (DVD фильмы) [ 5.58 GB ] Разлом Сан-Андреас / San Andreas [2015 DVD9 / Custom] DUB Ворон Скачать
1 | 0

28-11-2019 20:33  

Отключить всю рекламу на сайте

10-10-2015 21:07 Разлом Сан-Андреас Скачать торрент  

Раздача будет завтра))pb.wtf



    Дорогой пользователь! Огромная просьба, поблагодарите релизера, оцените раздачу и оставьте свои комментарий, если Вы скачали Разлом Сан-Андреас через торрент бесплатно! Внесите свою лепту в развитие PiratBit!
    Комментировать посты могут только пользователи прошедшие не сложную регистрацию
    Показать сообщения:    

    Разлом Сан-Андреас через торрент
    Скачать бесплатно Разлом Сан-Андреас
    Разлом Сан-Андреас скачать торрент
    Разлом Сан-Андреас смотреть онлайн
    Cкачать фильм Разлом Сан-Андреас бесплатно
    Разлом Сан-Андреас скачать торрент в хорошем качестве
    Разлом Сан-Андреас смотреть онлайн бесплатно в хорошем качестве


    Вы не можете начинать темы
    Вы не можете отвечать на сообщения
    Вы не можете редактировать свои сообщения
    Вы не можете удалять свои сообщения
    Вы не можете голосовать в опросах
    Вы не можете прикреплять файлы к сообщениям
    Вы можете скачивать файлы