Ссылка на приватное зеркало всего за 1$. Внимание количество ограничено!!!

OK

1+1

iTunes

мы

OK

1

WEB-DLRip

Джокер

Пифагор

Ведьмак / The Witcher сериал

Лицензия

ПШазам

ОК

Оно 2

iTunes

30
pack

Вам бонус

ВАЖНО

!!Акция!!

Alien_RageХит недели

RePack

Resident Evil 21

ИГРА 18+

pack

RePack

jed

RePack

fifa19

RePack

Assassins Creed: Odyssey

RePack

NEED FOR SPEED™ PAYBACK

4 сезон

9 сезон

Бесстыжие 9 сезон

Все сериалы

все сериалы на PB.wtf

RePack

FAR CRY 5
  

Разлом Сан-Андреас / San Andreas (Брэд Пейтон / Brad Peyton) [2015, боевик, триллер, драма, BDRip-AVC от potroks] DUB Лицензия pb.wtf

Разлом Сан-Андреас через торрент pb.wtf

Размер: 2.18 GB | Добавлен: 4 года 3 мес. назад | Торрент скачан:357 раз
Скачать  

30-09-2015 16:15 Разлом Сан-Андреас Скачать торрент  

Разлом Сан-Андреас / San Andreas
«A rescue pilot survived an earthquake, this is what happens next»
Год выпуска: 2015
Страна: США, Австралия, Канада / Warner Bros. Pictures...
Жанр: боевик, триллер, драма
Продолжительность: 01:54:28
Перевод: Дубляж [BD CEE]
Субтитры: русские (полные +форс.), английские (Full + SDH + SDH-Colored)
Навигация по главам: есть
Режиссер: Брэд Пейтон / Brad Peyton
В ролях:

Дуэйн Джонсон (Ray), Карла Гуджино (Emma), Александра Даддарио (Blake), Йоан Гриффит (Daniel Riddick), Арчи Панджаби (Serena), Пол Джаматти (Lawrence), Хьюго Джонстон-Барт (Ben), Арт Паркинсон (Ollie), Уилл Юн Ли (Dr. Kim Park), Кайли Миноуг (Susan Riddick), Колтон Хэйнс (Joby), Тодд Уильямс (Marcus)
Описание: Рэй - пилот спасательного вертолета, который всю свою жизнь помогал другим людям. За все время работы он насмотрелся на множество жутких вещей и не раз оказывался в очень сложных ситуациях. Несмотря на все преграды он спешил на помощь, даже не предполагая, что самое страшное ждет его впереди.
На Калифорнию обрушивается мощное землетрясение, в результате которого гибнут сотни людей и образовывается огромная трещина в земле. Во всеобщем хаосе Рэю предстоит отыскать свою дочь, но сделать это будет очень непросто. В надежде, что его ребенок все еще жив, он отправляется в смертельно опасное путешествие через весь штат...

Качество: BDRip-AVC
Формат: MKV
Видео кодек: AVC
Аудио кодек: AC3
Видео: AVC, 1020x424 (2.40:1), 1894 kbps, 23,976 fps, 0.183 bit/pixel
Аудио#1: AC3 / 5.1 / 48 kHz / 448 kbps / 16 bit | RUS
Аудио#2: AC3 / 5.1 / 48 kHz / 384 kbps / 16 bit | ENG

Релиз группы:
Автор рипа: potroks

Код:

Общее
Уникальный идентификатор : 225286931468232237872938356388531307585 (0xA97CAF4B14744F18B375CE1FF9E08441)
Полное имя : Razlom.San.Andreas.2015.DUAL.BDRip.x264.-HELLYWOOD.mkv
Формат : Matroska
Версия формата : Version 4 / Version 2
Размер файла : 2,18 Гбайт
Продолжительность : 1 ч. 55 м.
Общий поток : 2715 Кбит/сек
Название фильма : San Andreas (2015) - HELLYWOOD
Дата кодирования : UTC 2015-09-30 15:46:34
Программа кодирования : mkvmerge v5.9.0 ('On The Loose') built on Dec 15 2012 16:39:58
Библиотека кодирования : libebml v1.3.0 + libmatroska v1.4.0

Видео
Идентификатор : 1
Формат : AVC
Формат/Информация : Advanced Video Codec
Профиль формата : High@L4.1
Параметр CABAC формата : Да
Параметр ReFrames формата : 11 кадров
Идентификатор кодека : V_MPEG4/ISO/AVC
Продолжительность : 1 ч. 55 м.
Битрейт : 1894 Кбит/сек
Ширина : 1020 пикселей
Высота : 424 пикселя
Соотношение сторон : 2,40:1
Режим частоты кадров : Постоянный
Частота кадров : 23,976 кадра/сек
Цветовое пространство : YUV
Субдискретизация насыщенности : 4:2:0
Битовая глубина : 8 бит
Тип развёртки : Прогрессивная
Бит/(Пиксели*Кадры) : 0.183
Размер потока : 1,47 Гбайт (67%)
Заголовок : potroks
Библиотека кодирования : x264 core 148 r2597M e86f3a1
Настройки программы : cabac=1 / ref=11 / deblock=1:-3:-3 / analyse=0x3:0x133 / me=umh / subme=11 / psy=1 / psy_rd=1.00:0.00 / mixed_ref=1 / me_range=48 / chroma_me=1 / trellis=2 / 8x8dct=1 / cqm=0 / deadzone=21,11 / fast_pskip=0 / chroma_qp_offset=-2 / threads=9 / lookahead_threads=2 / sliced_threads=0 / nr=0 / decimate=1 / interlaced=0 / bluray_compat=0 / constrained_intra=0 / bframes=12 / b_pyramid=2 / b_adapt=2 / b_bias=0 / direct=3 / weightb=1 / open_gop=0 / weightp=2 / keyint=250 / keyint_min=23 / scenecut=40 / intra_refresh=0 / rc=2pass / mbtree=0 / bitrate=1894 / ratetol=1.0 / qcomp=0.70 / qpmin=0 / qpmax=69 / qpstep=4 / cplxblur=20.0 / qblur=0.5 / ip_ratio=1.40 / pb_ratio=1.30 / aq=1:0.80
Язык : English
Default : Да
Forced : Нет

Аудио #1
Идентификатор : 2
Формат : AC-3
Формат/Информация : Audio Coding 3
Расширение режима : CM (complete main)
Параметр Endianness формата : Big
Идентификатор кодека : A_AC3
Продолжительность : 1 ч. 55 м.
Вид битрейта : Постоянный
Битрейт : 448 Кбит/сек
Каналы : 6 каналов
Расположение каналов : Front: L C R, Side: L R, LFE
Частота : 48,0 КГц
Метод сжатия : С потерями
Размер потока : 369 Мбайт (17%)
Заголовок : Dub | DD 5.1 @ 448 kbps - Blu-Ray CEE
Язык : Russian
Default : Да
Forced : Нет

Аудио #2
Идентификатор : 3
Формат : AC-3
Формат/Информация : Audio Coding 3
Расширение режима : CM (complete main)
Параметр Endianness формата : Big
Идентификатор кодека : A_AC3
Продолжительность : 1 ч. 55 м.
Вид битрейта : Постоянный
Битрейт : 384 Кбит/сек
Каналы : 6 каналов
Расположение каналов : Front: L C R, Side: L R, LFE
Частота : 48,0 КГц
Метод сжатия : С потерями
Размер потока : 316 Мбайт (14%)
Заголовок : Original | DD 5.1 @ 384 kbps
Язык : English
Default : Нет
Forced : Нет

Текст #1
Идентификатор : 4
Формат : UTF-8
Идентификатор кодека : S_TEXT/UTF8
Идентификатор кодека/Информация : UTF-8 Plain Text
Заголовок : Forced
Язык : Russian
Default : Да
Forced : Нет

Текст #2
Идентификатор : 5
Формат : UTF-8
Идентификатор кодека : S_TEXT/UTF8
Идентификатор кодека/Информация : UTF-8 Plain Text
Заголовок : Blu-Ray
Язык : Russian
Default : Нет
Forced : Нет

Текст #3
Идентификатор : 6
Формат : UTF-8
Идентификатор кодека : S_TEXT/UTF8
Идентификатор кодека/Информация : UTF-8 Plain Text
Заголовок : Full
Язык : English
Default : Нет
Forced : Нет

Текст #4
Идентификатор : 7
Формат : UTF-8
Идентификатор кодека : S_TEXT/UTF8
Идентификатор кодека/Информация : UTF-8 Plain Text
Заголовок : SDH
Язык : English
Default : Нет
Forced : Нет

Текст #5
Идентификатор : 8
Формат : UTF-8
Идентификатор кодека : S_TEXT/UTF8
Идентификатор кодека/Информация : UTF-8 Plain Text
Заголовок : SDH-Colored
Язык : English
Default : Нет
Forced : Нет

Меню
00:00:00.000 : :(01)00:00:00:000
00:09:29.944 : :(02)00:09:29:944
00:18:47.209 : :(03)00:18:47:209
00:30:10.099 : :(04)00:30:10:099
00:40:08.823 : :(05)00:40:08:823
00:50:18.098 : :(06)00:50:18:098
00:59:44.497 : :(07)00:59:44:497
01:11:27.366 : :(08)01:11:27:366
01:19:43.612 : :(09)01:19:43:612
01:30:40.810 : :(10)01:30:40:810
01:39:56.490 : :(11)01:39:56:490
01:47:10.924 : :(12)01:47:10:924

pb.wtf



Скачать Разлом Сан-Андреас через торрент http://i67.fastpic.ru/big/2015/0927/87/7bb00b0b68d16dee1fa82e4c1f4dda87.png Скачать фильм Разлом Сан-Андреас через торрент бесплантно в хорошем качестве Описание: Рэй - пилот спасательного вертолета, который всю свою жизнь помогал другим людям. За все время работы он насмотрелся на ... 9.7 10 20
Торрент: Зарегистрирован [2015-10-15 14:26] · скачан: 357 раз
Статус: √ проверено
Размер: 2.18 GB
Как cкачать? Как скачать Разлом Сан-Андреас через торрент | qTorrent

% Раздел Тема Автор DL S | L
Ultra HD (UHD: 2K, 4K, 8K) — видео сверхвысокой чёткости [ 48.13 GB ] Разлом Сан-Андреас / San Andreas [2015 UHD BDRemux 2160p] DUB [] bober100 Скачать
1 | 0
Ultra HD (UHD: 2K, 4K, 8K) — видео сверхвысокой чёткости [ 21.4 GB ] Разлом Сан-Андреас / San Andreas [2015 UHD WEBRip 2160p] [USA Transfer] DUB [] bober100 Скачать
1 | 0
Фильмы 2015 [DVDrip, WEB-DLRip, HDrip] [ 1.46 GB ] Разлом Сан-Андреас / San Andreas [2015 BDRip-AVC] DUB potroks Скачать
2 | 0
Фильмы [HD 720p, 1080p] (Хороший звук DUB, MVO) [ 4.37 GB ] Разлом Сан-Андреас / San Andreas [2015 BDRip 720p] DUB potroks Скачать
1 | 0
Фильмы 2015 [DVDrip, WEB-DLRip, HDrip] [ 1.46 GB ] Разлом Сан-Андреас / San Andreas [2015 BDRip] DUB Twi7ter Скачать
1 | 0

28-11-2019 20:33  

Отключить всю рекламу на сайте

01-10-2015 16:21 Разлом Сан-Андреас Скачать торрент  

Нормульpb.wtf



05-10-2015 14:17 Разлом Сан-Андреас Скачать торрент  

Отличное кинцоpb.wtf



05-10-2015 15:29 Разлом Сан-Андреас Скачать торрент  

sashadushkin писал(а):

Нормуль

cool!! спасиюо за разлачуpb.wtf



    Дорогой пользователь! Огромная просьба, поблагодарите релизера, оцените раздачу и оставьте свои комментарий, если Вы скачали Разлом Сан-Андреас через торрент бесплатно! Внесите свою лепту в развитие PiratBit!
    Комментировать посты могут только пользователи прошедшие не сложную регистрацию
    Показать сообщения:    

    Разлом Сан-Андреас через торрент
    Скачать бесплатно Разлом Сан-Андреас
    Разлом Сан-Андреас скачать торрент
    Разлом Сан-Андреас смотреть онлайн
    Cкачать фильм Разлом Сан-Андреас бесплатно
    Разлом Сан-Андреас скачать торрент в хорошем качестве
    Разлом Сан-Андреас смотреть онлайн бесплатно в хорошем качестве


    Вы не можете начинать темы
    Вы не можете отвечать на сообщения
    Вы не можете редактировать свои сообщения
    Вы не можете удалять свои сообщения
    Вы не можете голосовать в опросах
    Вы не можете прикреплять файлы к сообщениям
    Вы можете скачивать файлы