Ссылка на приватное зеркало всего за 1$. Внимание количество ограничено!!!

OK

1+1

iTunes

мы

OK

1

WEB-DLRip

Джокер

Пифагор

Ведьмак / The Witcher сериал

iTunes

ПШазам

ОК

Оно 2

iTunes

30
pack

Вам бонус

ВАЖНО

!!Акция!!

Alien_RageХит недели

RePack

Resident Evil 21

ИГРА 18+

pack

RePack

jed

RePack

fifa19

RePack

Assassins Creed: Odyssey

RePack

NEED FOR SPEED™ PAYBACK

4 сезон

9 сезон

Бесстыжие 9 сезон

Все сериалы

все сериалы на PB.wtf

RePack

FAR CRY 5
  

Отель «Мэриголд». Заселение продолжается / The Second Best Exotic Marigold Hotel (Джон Мэдден) [2015, драма, комедия, BDRip, Дубляж - Лицензия / iTunes] pb.wtf

Отель «Мэриголд». Заселение продолжается через торрент pb.wtf

Размер: 2.05 GB | Добавлен: 4 года 3 мес. назад | Торрент скачан:81 раз
Скачать  

03-07-2015 15:54 Отель «Мэриголд». Заселение продолжается Скачать торрент  

Отель «Мэриголд». Заселение продолжается / The Second Best Exotic Marigold Hotel


Год выпуска: 2015
Страна: Великобритания, США
Жанр: драма, комедия

Продолжительность: 02:02:40
Перевод: Дубляж - [Лицензия / iTunes]
Режиссер: Джон Мэдден
В ролях:

Дев Патель (Sonny Kapoor), Мэгги Смит (Muriel Donnelly), Дэнни Махони (Car Valet), Дэвид Стрэтэйрн (Ty Burley), Джуди Денч (Evelyn Greenslade), Билл Найи (Douglas Ainslie), Селия Имри (Madge Hardcastle), Рональд Пикап (Norman Cousins), Диана Хардкэсл (Carol Parr), Сабхраджоти Барат (Hari), Фиона Моллисон (Susan), Захари Соффин (American Tourist)

Описание:
Отель «Мэриголд» не был бы экзотическим, если бы не поселил двух незнакомых друг с другом людей в один номер; и он не стал бы лучшим, если бы из этого не произошло ничего хорошего.
Рейтинг:

MPAA: PG - Рекомендуется присутствие родителей

Качество: BDRip
Формат: AVI
Видео кодек: XviD
Аудио кодек: AC3
Видео: XviD, 720x304 (2.40:1), 1548 kbps, 23,976 fps, 0,295 bpp
Аудио №1: AC3 / 5.1 / 48 kHz / 384 kbps / 16 bit - Russian
Аудио №2: AC3 / 5.1 / 48 kHz / 448 kbps / 16 bit - English

Код:

General
Complete name                            : E:\Films\THE_SECOND_BEST_EXOTIC_MARIGOLD_HOTEL_2015_BDRip.avi
Format                                   : AVI
Format/Info                              : Audio Video Interleave
Format profile                           : OpenDML
File size                                : 2.05 GiB
Duration                                 : 2h 2mn
Overall bit rate                         : 2 397 Kbps
Writing application                      : XviD4PSP 6.0 / 54.29.105

Video
ID                                       : 0
Format                                   : MPEG-4 Visual
Format profile                           : Advanced Simple@L5
Format settings, BVOP                    : 1
Format settings, QPel                    : No
Format settings, GMC                     : No warppoints
Format settings, Matrix                  : Default (H.263)
Codec ID                                 : XVID
Codec ID/Hint                            : XviD
Duration                                 : 2h 2mn
Bit rate                                 : 1 549 Kbps
Width                                    : 720 pixels
Height                                   : 304 pixels
Display aspect ratio                     : 2.40:1
Frame rate                               : 23.976 fps
Color space                              : YUV
Chroma subsampling                       : 4:2:0
Bit depth                                : 8 bits
Scan type                                : Progressive
Compression mode                         : Lossy
Bits/(Pixel*Frame)                       : 0.295
Stream size                              : 1.33 GiB (65%)
Writing library                          : XviD 64

Audio #1
ID                                       : 1
Format                                   : AC-3
Format/Info                              : Audio Coding 3
Mode extension                           : CM (complete main)
Codec ID                                 : 2000
Duration                                 : 2h 2mn
Bit rate mode                            : Constant
Bit rate                                 : 384 Kbps
Channel(s)                               : 6 channels
Channel positions                        : Front: L C R, Side: L R, LFE
Sampling rate                            : 48.0 KHz
Bit depth                                : 16 bits
Compression mode                         : Lossy
Stream size                              : 337 MiB (16%)
Alignment                                : Aligned on interleaves
Interleave, duration                     : 32 ms (0.77 video frame)

Audio #2
ID                                       : 2
Format                                   : AC-3
Format/Info                              : Audio Coding 3
Mode extension                           : CM (complete main)
Codec ID                                 : 2000
Duration                                 : 2h 2mn
Bit rate mode                            : Constant
Bit rate                                 : 448 Kbps
Channel(s)                               : 6 channels
Channel positions                        : Front: L C R, Side: L R, LFE
Sampling rate                            : 48.0 KHz
Bit depth                                : 16 bits
Compression mode                         : Lossy
Stream size                              : 393 MiB (19%)
Alignment                                : Aligned on interleaves
Interleave, duration                     : 32 ms (0.77 video frame)


pb.wtf



Скачать Отель «Мэриголд». Заселение продолжается через торрент http://i2.imageban.ru/out/2015/07/03/3636c0a82142d1dd7a51f4ed2bf4cdbf.jpg Скачать фильм Отель «Мэриголд». Заселение продолжается через торрент бесплантно в хорошем качестве Описание: Отель «Мэриголд» не был бы экзотическим, если бы не поселил двух незнакомых друг с другом людей в один номер; и он не стал бы ... 9.3 10 13
Торрент: Зарегистрирован [2015-10-15 14:26] · скачан: 81 раз
Статус: √ проверено
Размер: 2.05 GB
Как cкачать? Как скачать Отель «Мэриголд». Заселение продолжается через торрент | qTorrent

% Раздел Тема Автор DL S | L
Фильмы (Blu-ray, BD-Remux, HDDVD) [ 38.93 GB ] Отель «Мэриголд». Заселение продолжается / The Second Best Exotic Marigold Hotel [2015 Blu-Ray] / Russian Mafia Скачать
1 | 0
Фильмы [HD 720p, 1080p] (Хороший звук DUB, MVO) [ 13.19 GB ] Отель «Мэриголд». Заселение продолжается / The Second Best Exotic Marigold Hotel [2015 BDRip 1080p ] Ворон Скачать
1 | 0
Фильмы без перевода [ 8.75 GB ] Отель «Мэриголд». Заселение продолжается / The Second Best Exotic Marigold Hotel [2015 BDRip 1080p] [ENG] killermax2013 Скачать
1 | 0

28-11-2019 20:33  

Отключить всю рекламу на сайте


14-10-2015 14:02 Отель «Мэриголд». Заселение продолжается Скачать торрент  

Женский фильмpb.wtf



    Дорогой пользователь! Огромная просьба, поблагодарите релизера, оцените раздачу и оставьте свои комментарий, если Вы скачали Отель «Мэриголд». Заселение продолжается через торрент бесплатно! Внесите свою лепту в развитие PiratBit!
    Комментировать посты могут только пользователи прошедшие не сложную регистрацию
    Показать сообщения:    

    Отель «Мэриголд». Заселение продолжается через торрент
    Скачать бесплатно Отель «Мэриголд». Заселение продолжается
    Отель «Мэриголд». Заселение продолжается скачать торрент
    Отель «Мэриголд». Заселение продолжается смотреть онлайн
    Cкачать фильм Отель «Мэриголд». Заселение продолжается бесплатно
    Отель «Мэриголд». Заселение продолжается скачать торрент в хорошем качестве
    Отель «Мэриголд». Заселение продолжается смотреть онлайн бесплатно в хорошем качестве


    Вы не можете начинать темы
    Вы не можете отвечать на сообщения
    Вы не можете редактировать свои сообщения
    Вы не можете удалять свои сообщения
    Вы не можете голосовать в опросах
    Вы не можете прикреплять файлы к сообщениям
    Вы можете скачивать файлы