Ссылка на приватное зеркало всего за 1$. Внимание количество ограничено!!!

OK

1+1

iTunes

мы

OK

1

WEB-DLRip

Джокер

Пифагор

Ведьмак / The Witcher сериал

iTunes

ПШазам

ОК

Оно 2

iTunes

30
pack

Вам бонус

ВАЖНО

!!Акция!!

Alien_RageХит недели

RePack

Resident Evil 21

ИГРА 18+

pack

RePack

jed

RePack

fifa19

RePack

Assassins Creed: Odyssey

RePack

NEED FOR SPEED™ PAYBACK

4 сезон

9 сезон

Бесстыжие 9 сезон

Все сериалы

все сериалы на PB.wtf

RePack

FAR CRY 5
  

Третий лишний 2 / Ted 2 (Сет МакФарлейн) [2015, комедия, WEB-DLRip-AVC] [DUB] [Лицензия / iTunes] pb.wtf

Третий лишний 2 через торрент pb.wtf

Размер: 1.7 GB | Добавлен: 4 года 3 мес. назад | Торрент скачан:81 раз
Скачать  

26-09-2015 08:15 Третий лишний 2 Скачать торрент  

Третий лишний 2 / Ted 2
Год выхода: 2015
Жанр: комедия
Страна: США
Продолжительность: 01:52:43
Перевод: Полное дублирование [Лицензия / iTunes]
Субтитры: нет

Режиссер: Сет МакФарлейн

В ролях: Марк Уолберг , Сет МакФарлейн , Аманда Сайфред , Лиам Нисон , Морган Фриман , Патрик Варбертон Плюшевый беспредельщик продолжает сводить с ума чопорную интеллигенцию. На этот раз говорящий медвежонок с большим эго и его длинноногая блондинка решили завести ребёнка. Там, где не постаралась природа, на помощь приходят звёздные доноры, городские сумасшедшие и верный друг Джонни. Он только что расстался с Лори и готов к новым авантюрам. Третий здесь совсем не лишний.



Качество: WEB-DLRip-AVC
Формат: MKV
Видео кодек: AVC
Аудио кодек: AC3
Видео: MPEG-4 AVC, 1775 Кбит/с, 1024x424, 23,976 fps
Звук: AC3, 48 kHz, AC3, 3/2 (L,C,R,l,r) + LFE ch, ~384.00 kbps avg - Дублированный (iTunes)

Рип от StarbirS
Формат : Matroska
Версия формата : Version 2
Размер файла : 1,70 Гбайт
Продолжительность : 1 ч. 52 м.
Общий поток : 2160 Кбит/сек
Название фильма : Ted.2.2015.x264.WEB-DLRip.AVC.Rus
Дата кодирования : UTC 2015-09-25 17:12:35
Программа кодирования : mkvmerge v7.9.0 ('Birds') 64bit
Библиотека кодирования : libebml v1.3.1 + libmatroska v1.4.2

Видео
Идентификатор : 1
Формат : AVC
Формат/Информация : Advanced Video Codec
Профиль формата : High@L4.1
Параметр CABAC формата : Да
Параметр ReFrames формата : 11 кадров
Идентификатор кодека : V_MPEG4/ISO/AVC
Продолжительность : 1 ч. 52 м.
Битрейт : 1775 Кбит/сек
Ширина : 1024 пикселя
Высота : 424 пикселя
Соотношение сторон : 2,40:1
Режим частоты кадров : Постоянный
Частота кадров : 23,976 кадра/сек
Цветовое пространство : YUV
Субдискретизация насыщенности : 4:2:0
Битовая глубина : 8 бит
Тип развёртки : Прогрессивная
Бит/(Пиксели*Кадры) : 0.171
Размер потока : 1,36 Гбайт (80%)
Заголовок : Ted.2.2015.x264.WEB-DLRip.AVC.Rus.by.StarbirS
Библиотека кодирования : x264 core 148 r2597 e86f3a1
Настройки программы : cabac=1 / ref=11 / deblock=1:-3:-3 / analyse=0x3:0x113 / me=umh / subme=10 / psy=1 / psy_rd=1.05:0.10 / mixed_ref=1 / me_range=48 / chroma_me=1 / trellis=2 / 8x8dct=1 / cqm=0 / deadzone=21,11 / fast_pskip=0 / chroma_qp_offset=-3 / threads=12 / lookahead_threads=2 / sliced_threads=0 / nr=0 / decimate=0 / interlaced=0 / bluray_compat=0 / constrained_intra=0 / bframes=7 / b_pyramid=2 / b_adapt=2 / b_bias=0 / direct=3 / weightb=1 / open_gop=1 / weightp=2 / keyint=240 / keyint_min=23 / scenecut=40 / intra_refresh=0 / rc=2pass / mbtree=0 / bitrate=1775 / ratetol=1.0 / qcomp=0.70 / qpmin=0 / qpmax=69 / qpstep=4 / cplxblur=20.0 / qblur=0.5 / ip_ratio=1.40 / pb_ratio=1.30 / aq=2:0.90
Язык : English
Default : Да
Forced : Нет

Аудио
Идентификатор : 2
Формат : AC-3
Формат/Информация : Audio Coding 3
Расширение режима : CM (complete main)
Параметр Endianness формата : Big
Идентификатор кодека : A_AC3
Продолжительность : 1 ч. 52 м.
Вид битрейта : Постоянный
Битрейт : 384 Кбит/сек
Каналы : 6 каналов
Расположение каналов : Front: L C R, Side: L R, LFE
Частота : 48,0 КГц
Метод сжатия : С потерями
Размер потока : 310 Мбайт (18%)
Заголовок : Дублированный (iTunes)
Язык : Russian
Default : Да
Forced : Нет

Меню
00:00:00.000 : en:глава 1
00:07:18.000 : en:глава 2
00:14:49.000 : en:глава 3
00:19:15.000 : en:глава 4
00:27:35.000 : en:глава 5
00:34:19.000 : en:глава 6
00:42:46.000 : en:глава 7
00:47:59.000 : en:глава 8
00:54:29.000 : en:глава 9
00:58:47.000 : en:глава 10
01:04:08.000 : en:глава 11
01:09:51.000 : en:глава 12
01:12:25.000 : en:глава 13
01:15:19.000 : en:глава 14
01:21:40.000 : en:глава 15
01:26:38.000 : en:глава 16
01:31:13.000 : en:глава 17
01:36:46.000 : en:глава 18
01:41:49.000 : en:глава 19
01:45:42.000 : en:глава 20[/code]
pb.wtf



Скачать Третий лишний 2 через торрент http://i68.fastpic.ru/big/2015/0130/98/0e11c306155331f01c5941fcf857e798.jpg Скачать фильм Третий лишний 2 через торрент бесплантно в хорошем качестве В ролях: Марк Уолберг , Сет МакФарлейн , Аманда Сайфред , Лиам Нисон , Морган Фриман , Патрик Варбертон Плюшевый беспредельщик продолжает ... 9.2 10 17
Торрент: Зарегистрирован [2015-10-15 14:17] · скачан: 81 раз
Статус: √ проверено
Размер: 1.7 GB
Как cкачать? Как скачать Третий лишний 2 через торрент | qTorrent

% Раздел Тема Автор DL S | L
Фильмы (WEB-DL 720p, 1080p) [ 10.23 GB ] Третий лишний 2 / Ted 2 [2015 WEB-DL 1080p ] [Театральная версия] DUB [] +AVO [Есарев] bober100 Скачать
2 | 0
Фильмы 2015 [DVDrip, WEB-DLRip, HDrip] [ 1.46 GB ] Третий лишний 2 / Ted 2 [2015 BDRip-AVC] Dub potroks Скачать
1 | 0
Фильмы (HD 720p, 1080p) (48-60 fps) [ 5.89 GB ] Третий лишний 2 / Ted 2 [2015 BDRip 720p / 60 fps Theatrical Cut - ] от R.G. HD-Films Ressident Скачать
5 | 0
Фильмы 2015 [DVDrip, WEB-DLRip, HDrip] [ 1.46 GB ] Третий лишний 2 / Ted 2 [2015 BDRip] Dub Twi7ter Скачать
1 | 0
Фильмы с авторской озвучкой [ 1.46 GB ] Третий лишний 2 / Ted 2 [2015 BDRip Авторский [Есарев] Twi7ter Скачать
1 | 0
Фильмы 2015 [DVDrip, WEB-DLRip, HDrip] [ 1.41 GB ] Третий лишний 2 / Ted 2 [2015 BDRip Twi7ter Скачать
1 | 0
T Фильмы (Blu-ray, BD-Remux, HDDVD) [ 27.82 GB ] Третий лишний 2 / Ted 2 [2015 BD Remux] [Unrated Cut] ] Ворон Скачать
1 | 0

28-11-2019 20:33  

Отключить всю рекламу на сайте

27-09-2015 09:10 Третий лишний 2 Скачать торрент  

Спасибо за релиз.

ЗЫ

Забавно противоречащая аватарка и подпись...pb.wtf



27-09-2015 11:27 Третий лишний 2 Скачать торрент  

PupsiMax писал(а):

Забавно противоречащая аватарка и подпись...

догадайтесь сами
sarcasticpb.wtf



    Дорогой пользователь! Огромная просьба, поблагодарите релизера, оцените раздачу и оставьте свои комментарий, если Вы скачали Третий лишний 2 через торрент бесплатно! Внесите свою лепту в развитие PiratBit!
    Комментировать посты могут только пользователи прошедшие не сложную регистрацию
    Показать сообщения:    

    Третий лишний 2 через торрент
    Скачать бесплатно Третий лишний 2
    Третий лишний 2 скачать торрент
    Третий лишний 2 смотреть онлайн
    Cкачать фильм Третий лишний 2 бесплатно
    Третий лишний 2 скачать торрент в хорошем качестве
    Третий лишний 2 смотреть онлайн бесплатно в хорошем качестве


    Вы не можете начинать темы
    Вы не можете отвечать на сообщения
    Вы не можете редактировать свои сообщения
    Вы не можете удалять свои сообщения
    Вы не можете голосовать в опросах
    Вы не можете прикреплять файлы к сообщениям
    Вы можете скачивать файлы