Ссылка на приватное зеркало всего за 1$. Внимание количество ограничено!!!

iTunes

iTunes

iTunes

1

iTunes

iTunes

iTunes

WEBRip

iTunes

30
pack

$ от Little Big

ВАЖНО

!!Акция!!

Alien_RageХит недели

RePack

Resident Evil 21

ИГРА 18+

pack

RePack

jed

!!Акция!!

Alien_Rage

RePack

fifa19

RePack

Assassins Creed: Odyssey

RePack

NEED FOR SPEED™ PAYBACK

4 сезон

9 сезон

Бесстыжие 9 сезон

Все сериалы

все сериалы на PB.wtf

RePack

FAR CRY 5
  

Железный кулак 2 / The Man with the Iron Fists 2 (Роэль Рейн ) [2015, боевик, HDRip] DUB Лицензия pb.wtf

Железный кулак 2 через торрент pb.wtf

Размер: 1.37 GB | Добавлен: 4 года 9 мес. назад | Торрент скачан:233 раза
Скачать  

20-05-2015 18:42 Железный кулак 2 Скачать торрент  


Железный кулак 2 / The Man with the Iron Fists 2


ИНФОРМАЦИЯ:
Год выпуска:2015
Страна: США
Жанр: боевик
Продолжительность: 01:30:25
Перевод: Дубляж - Лицензия / iTunes
Режиссер: Роэль Рейн

В Ролях:


RZA (The Blacksmith), Кэри-Хироюки Тагава (The Mayor), Сахайак Бунсанакит (Bolo), Pim Bubear (Innocence), Оушен Хоу (Shou), Грэйс Хуанг (Gemini Female), Хой Линь (Gemini Male), Khiri Steven Lowenstein (Bing), Карл Нг (Master Ho), Дастин Нгуен (Li Kung), Чарли Рюдпоканон (Li Guang), Саймон Йин (Cha Pao)

Описание:
Шахтер Ли Кунг и его жена А Ни обнаружили раненного незнакомца Фаддеуса около деревни и дали ему убежище. После лечения он ввязался в конфликт со зловещим мастером Хо, его мерзким кланом Битл и ужасным Лордом Пи.

  • Мировая премьера:14 апреля 2015

    ТЕХ.ДАННЫЕ:
    Качество: HDRip
    Формат: AVI
    Видео кодек: XviD
    Аудио кодек: AC3
    Видео: XviD, 720x400 (16:9), 1768 kbps, 23,976 fps, 0,256 bpp
    Аудио: AC3 / 5.1 / 48 kHz / 384 kbps / 16 bit



    Код:

    General
    Complete name                            : D:\Торенты\Jelezniy.Kulak.2.2015.HDRip.1400Mb.avi
    Format                                   : AVI
    Format/Info                              : Audio Video Interleave
    File size                                : 1.37 GiB
    Duration                                 : 1h 30mn
    Overall bit rate                         : 2 162 Kbps
    Writing application                      : VirtualDubMod 1.5.10.2 (build 2540/release)
    Writing library                          : VirtualDubMod build 2540/release

    Video
    ID                                       : 0
    Format                                   : MPEG-4 Visual
    Format profile                           : Advanced Simple@L5
    Format settings, BVOP                    : 2
    Format settings, QPel                    : No
    Format settings, GMC                     : No warppoints
    Format settings, Matrix                  : Default (MPEG)
    Codec ID                                 : XVID
    Codec ID/Hint                            : XviD
    Duration                                 : 1h 30mn
    Bit rate                                 : 1 769 Kbps
    Width                                    : 720 pixels
    Height                                   : 400 pixels
    Display aspect ratio                     : 16:9
    Frame rate                               : 23.976 fps
    Color space                              : YUV
    Chroma subsampling                       : 4:2:0
    Bit depth                                : 8 bits
    Scan type                                : Progressive
    Compression mode                         : Lossy
    Bits/(Pixel*Frame)                       : 0.256
    Stream size                              : 1.12 GiB (82%)
    Writing library                          : XviD 1.2.1 (UTC 2008-12-04)

    Audio
    ID                                       : 1
    Format                                   : AC-3
    Format/Info                              : Audio Coding 3
    Mode extension                           : CM (complete main)
    Codec ID                                 : 2000
    Duration                                 : 1h 30mn
    Bit rate mode                            : Constant
    Bit rate                                 : 384 Kbps
    Channel(s)                               : 6 channels
    Channel positions                        : Front: L C R, Side: L R, LFE
    Sampling rate                            : 48.0 KHz
    Bit depth                                : 16 bits
    Compression mode                         : Lossy
    Stream size                              : 248 MiB (18%)
    Alignment                                : Split accross interleaves
    Interleave, duration                     : 42 ms (1.00 video frame)
    Interleave, preload duration             : 500 ms

    Скриншоты:


    © Оформление by Ворон
    pb.wtf



  • Скачать Железный кулак 2 через торрент http://pic.kartinco.top/images/6/ordi9.jpg Скачать фильм Железный кулак 2 через торрент бесплантно в хорошем качестве Описание: Шахтер Ли Кунг и его жена А Ни обнаружили раненного незнакомца Фаддеуса около деревни и дали ему убежище. После лечения он ... 9.9 10 52
    Торрент: Зарегистрирован [2015-10-15 14:12] · скачан: 233 раз
    Статус: √ проверено
    Размер: 1.37 GB
    Как cкачать? Как скачать Железный кулак 2 через торрент | qTorrent

    % Раздел Тема Автор DL S | L
    Фильмы (Blu-ray, BD-Remux, HDDVD) [ 34.35 GB ] Железный кулак 2 / The Man with the Iron Fists 2 [2015 Blu-ray CEE 1080p] Russian Mafia Скачать
    1 | 1


    Последний раз редактировалось: Ворон (2015-05-20 20:09), всего редактировалось 1 раз

    28-11-2019 20:33  

    Отключить всю рекламу на сайте

    20-05-2015 18:53 Железный кулак 2 Скачать торрент  

    Знаете, на чем все кунг-фу строится? На том, что там нет Валуева. И маленькие вертлявые люди думают, что могут драться.pb.wtf



    20-05-2015 19:08 Железный кулак 2 Скачать торрент  

    1080 будет скоро.BDRip 1080ppb.wtf





    Последний раз редактировалось: Ворон (2015-05-20 20:10), всего редактировалось 1 раз

    20-05-2015 19:37 Железный кулак 2 Скачать торрент  

    sv13-spb писал(а):

    Знаете, на чем все кунг-фу строится? На том, что там нет Валуева. И маленькие вертлявые люди думают, что могут драться.

    Долго думал?pb.wtf



    20-05-2015 20:59 Железный кулак 2 Скачать торрент  

    Хрень беспредельная первая часть в разы лучше.pb.wtf



    21-05-2015 05:47 Железный кулак 2 Скачать торрент  

    такие фильмы в 90-х снимали зачем сейчас такую муть снимать?!pb.wtf



    21-05-2015 10:58 Железный кулак 2 Скачать торрент  

    sv13-spb писал(а):

    Знаете, на чем все кунг-фу строится? На том, что там нет Валуева. И маленькие вертлявые люди думают, что могут драться.

    sarcastic а кто того дятла в кино возьмет sarcastic pb.wtf



    30-05-2015 09:36 Железный кулак 2 Скачать торрент  

    Большей хрени я не виделpb.wtf



    27-01-2016 08:13 Железный кулак 2 Скачать торрент  

    killermax2013 писал(а):

    sv13-spb писал(а):

    Знаете, на чем все кунг-фу строится? На том, что там нет Валуева. И маленькие вертлявые люди думают, что могут драться.

    sarcastic а кто того дятла в кино возьмет sarcastic

    pb.wtf



      Дорогой пользователь! Огромная просьба, поблагодарите релизера, оцените раздачу и оставьте свои комментарий, если Вы скачали Железный кулак 2 через торрент бесплатно! Внесите свою лепту в развитие PiratBit!
      Комментировать посты могут только пользователи прошедшие не сложную регистрацию
      Показать сообщения:    

      Железный кулак 2 через торрент
      Скачать бесплатно Железный кулак 2
      Железный кулак 2 скачать торрент
      Железный кулак 2 смотреть онлайн
      Cкачать фильм Железный кулак 2 бесплатно
      Железный кулак 2 скачать торрент в хорошем качестве
      Железный кулак 2 смотреть онлайн бесплатно в хорошем качестве


      Вы не можете начинать темы
      Вы не можете отвечать на сообщения
      Вы не можете редактировать свои сообщения
      Вы не можете удалять свои сообщения
      Вы не можете голосовать в опросах
      Вы не можете прикреплять файлы к сообщениям
      Вы можете скачивать файлы