Ссылка на приватное зеркало всего за 1$. Внимание количество ограничено!!!

OK

1+1

iTunes

мы

OK

1

WEB-DLRip

Джокер

Пифагор

Ведьмак / The Witcher сериал

Лицензия

ПШазам

ОК

Оно 2

iTunes

30
pack

Вам бонус

ВАЖНО

!!Акция!!

Alien_RageХит недели

RePack

Resident Evil 21

ИГРА 18+

pack

RePack

jed

!!Акция!!

Alien_Rage

RePack

fifa19

RePack

Assassins Creed: Odyssey

RePack

NEED FOR SPEED™ PAYBACK

4 сезон

9 сезон

Бесстыжие 9 сезон

Все сериалы

все сериалы на PB.wtf

RePack

FAR CRY 5
  

Земля будущего / Tomorrowland (Брэд Бёрд) [2015 г., фантастика, боевик, детектив, приключения, семейный, BDRip, Дубляж "Лицензия"] pb.wtf

Земля будущего через торрент pb.wtf

Раздают: 1 [ 0 KB/s ]
Размер: 2.19 GB | Добавлен: 4 года 3 мес. назад | Торрент скачан:405 раз
Скачать  

10-10-2015 12:16 Земля будущего Скачать торрент  

Земля будущего / Tomorrowland
Год выпуска: 2015
Страна: США, Испания / Walt Disney Pictures, A113, Babieka
Жанр: фантастика, боевик, детектив, приключения, семейный
Продолжительность: 02:10:03
Перевод: Дубляж (Лицензия)

Режиссер: Брэд Бёрд



В ролях: Бритт Робертсон, Джордж Клуни, Рэффи Кэссиди, Хью Лори, Тим МакГроу, Кэтрин Хан, Кигэн-Майкл Ки, Кристофер Бауэр, Томас Робинсон, Пирс Гэнон

Описание: Когда в руки к молодой девушке, жаждущей новых приключений, попадает загадочный предмет, открывающий доступ в параллельную реальность, она вынуждена обратиться за помощью к циничному гению-изобретателю Фрэнку. Кейси должна убедить бывшего вундеркинда раскрыть ей тайну загадочного места, находящегося вне привычной реальности, известного как Земля будущего, и убедить Фрэнка вернуться туда, откуда его однажды изгнали…

Качество: BDRip (Рип с Blu-ray 1080p AVC DD5.1)
Формат: AVI
Видео кодек: DivX
Аудио кодек: AC3
Видео: 720x328 (2.20:1), 23.976 fps, DivX Codec 4.x ~1958 kbps avg, 0.35 bit/pixel
Аудио: 48 kHz, AC3 Dolby Digital, 3/2 (L,C,R,l,r) + LFE ch, ~448 kbps

Общее
Полное имя : F:\кино\Земля будущего.2015.BDRip.avi
Формат : AVI
Формат/Информация : Audio Video Interleave
Профиль формата : OpenDML
Размер файла : 2,19 Гбайт
Продолжительность : 2 ч. 10 м.
Общий поток : 2414 Кбит/сек
Программа кодирования : VirtualDubMod 1.5.10.3 | www.virtualdub-fr.org || (build 2550/release)
Библиотека кодирования : VirtualDubMod build 2550/release

Видео
Идентификатор : 0
Формат : MPEG-4 Visual
Профиль формата : Advanced Simple@L5
Параметр BVOP формата : 2
Параметр QPel формата : Нет
Параметр GMC формата : Без точки перехода
Параметр матрицы формата : Default (H.263)
Идентификатор кодека : DIVX
Идентификатор кодека/Информация : Project Mayo
Идентификатор кодека/Подсказка : DivX 4
Продолжительность : 2 ч. 10 м.
Битрейт : 1954 Кбит/сек
Ширина : 720 пикселей
Высота : 328 пикселей
Соотношение сторон : 2,2:1
Частота кадров : 23,976 кадра/сек
Цветовое пространство : YUV
Субдискретизация насыщенности : 4:2:0
Битовая глубина : 8 бит
Тип развёртки : Прогрессивная
Метод сжатия : С потерями
Бит/(Пиксели*Кадры) : 0.345
Размер потока : 1,77 Гбайт (81%)
Библиотека кодирования : XviD 1.2.1 (UTC 2008-12-04)

Аудио
Идентификатор : 1
Формат : AC-3
Формат/Информация : Audio Coding 3
Расширение режима : CM (complete main)
Параметр Endianness формата : Big
Идентификатор кодека : 2000
Продолжительность : 2 ч. 10 м.
Вид битрейта : Постоянный
Битрейт : 448 Кбит/сек
Каналы : 6 каналов
Расположение каналов : Front: L C R, Side: L R, LFE
Частота : 48,0 КГц
Метод сжатия : С потерями
Размер потока : 417 Мбайт (19%)
Выравнивание : Разделение по промежуткам
Продолжительность промежутка : 42 мс. (1,00 видеокадр)
Время предзагрузки промежутка : 500 мс.

pb.wtf



Скачать Земля будущего через торрент http://pic1.kartinco.top/images/10/bedbm.jpg Скачать фильм Земля будущего через торрент бесплантно в хорошем качестве Описание: Когда в руки к молодой девушке, жаждущей новых приключений, попадает загадочный предмет, открывающий доступ в параллельную ... 10 10 19
Торрент: Зарегистрирован [2015-10-15 14:12] · скачан: 405 раз
Статус: √ проверено
Размер: 2.19 GB
Как cкачать? Как скачать Земля будущего через торрент | qTorrent

% Раздел Тема Автор DL S | L
Фильмы 2015 [DVDrip, WEB-DLRip, HDrip] [ 1.47 GB ] Земля будущего / Tomorrowland [2015 WEBRip] [Open Matte / Локализованный видеряд] killermax2013 Скачать
2 | 0
Фильмы (Blu-ray, BD-Remux, HDDVD) [ 34.73 GB ] Земля будущего / Tomorrowland [2015 BDRemux 1080p] - [] sheker187 Скачать
1 | 1
T Фильмы [HD 720p, 1080p] (Хороший звук DUB, MVO) [ 7.76 GB ] Земля будущего / Tomorrowland [2015 BDRip 1080p ] solektra13 Скачать
3 | 0
Фильмы (Blu-ray, BD-Remux, HDDVD) [ 28.78 GB ] Земля будущего / Tomorrowland [2015 BDRemux 1080p / ] Ворон Скачать
2 | 0
Фильмы 2015 [DVDrip, WEB-DLRip, HDrip] [ 2.05 GB ] Земля будущего / Tomorrowland [2015 BDRip-AVC] killermax2013 Скачать
1 | 0
Фильмы 2015 [DVDrip, WEB-DLRip, HDrip] [ 1.46 GB ] Земля будущего / Tomorrowland [2015 Испания BDRip] DUB Twi7ter Скачать
2 | 0
Фильмы 2015 [DVDrip, WEB-DLRip, HDrip] [ 2.91 GB ] Земля будущего / Tomorrowland [2015 BDRip-AVC] DUB potroks Скачать
2 | 0

28-11-2019 20:33  

Отключить всю рекламу на сайте

    Дорогой пользователь! Огромная просьба, поблагодарите релизера, оцените раздачу и оставьте свои комментарий, если Вы скачали Земля будущего через торрент бесплатно! Внесите свою лепту в развитие PiratBit!
    Комментировать посты могут только пользователи прошедшие не сложную регистрацию
    Показать сообщения:    

    Земля будущего через торрент
    Скачать бесплатно Земля будущего
    Земля будущего скачать торрент
    Земля будущего смотреть онлайн
    Cкачать фильм Земля будущего бесплатно
    Земля будущего скачать торрент в хорошем качестве
    Земля будущего смотреть онлайн бесплатно в хорошем качестве


    Вы не можете начинать темы
    Вы не можете отвечать на сообщения
    Вы не можете редактировать свои сообщения
    Вы не можете удалять свои сообщения
    Вы не можете голосовать в опросах
    Вы не можете прикреплять файлы к сообщениям
    Вы можете скачивать файлы