Ссылка на приватное зеркало всего за 1$. Внимание количество ограничено!!!

OK

1+1

iTunes

мы

OK

1

WEB-DLRip

Джокер

Пифагор

Ведьмак / The Witcher сериал

Лицензия

ПШазам

ОК

Оно 2

iTunes

30
pack

Вам бонус

ВАЖНО

!!Акция!!

Alien_RageХит недели

RePack

Resident Evil 21

ИГРА 18+

pack

RePack

jed

!!Акция!!

Alien_Rage

RePack

fifa19

RePack

Assassins Creed: Odyssey

RePack

NEED FOR SPEED™ PAYBACK

4 сезон

9 сезон

Бесстыжие 9 сезон

Все сериалы

все сериалы на PB.wtf

RePack

FAR CRY 5
  

Земля будущего / Tomorrowland (Брэд Бёрд / Brad Bird) [2015, фантастика, боевик, детектив, BDRip-AVC от potroks] DUB Лицензия pb.wtf

Земля будущего через торрент pb.wtf

Размер: 1.75 GB | Добавлен: 4 года 2 мес. назад | Торрент скачан:1040 раз
Скачать  

01-10-2015 09:08 Земля будущего Скачать торрент  

Земля будущего / Tomorrowland
«Представьте мир, где возможно всё»
Год выпуска: 2015
Страна: США, Испания / Walt Disney Pictures, Babieka, A113
Жанр: фантастика, боевик, детектив, приключения, семейный
Продолжительность: 02:10:02
Перевод: Дубляж [BD CEE]
Субтитры: русские (Forced), русские
Навигация по главам: есть
Режиссер: Брэд Бёрд / Brad Bird
В ролях:

Бритт Робертсон (Casey Newton), Джордж Клуни (Frank Walker), Рэффи Кэссиди (Athena), Хью Лори (Nix), Тим МакГроу (Eddie Newton), Кэтрин Хан (Ursula), Кигэн-Майкл Ки (Hugo), Кристофер Бауэр (Frank's Dad), Томас Робинсон (Young Frank Walker), Пирс Гэнон (Nate Newton), Мэттью МакКоулл (Dave Clark), Джуди Грир (Jenny Newton)
Описание: Когда в руки к молодой девушке, жаждущей новых приключений, попадает загадочный предмет, открывающий доступ в параллельную реальность, она вынуждена обратиться за помощью к циничному гению-изобретателю Фрэнку. Кейси должна убедить бывшего вундеркинда раскрыть ей тайну загадочного места, находящегося вне привычной реальности, известного как Земля будущего, и убедить Фрэнка вернуться туда, откуда его однажды изгнали...

Качество: BDRip-AVC
Формат: MKV
Видео кодек: AVC
Аудио кодек: AC3
Видео: AVC, 916x416 (2.2:1), 1543 kbps, 23,976 fps, 0,169 bit/pixel
Аудио: AC3 / 5.1 / 48 kHz / 384 kbps / 16 bit

Релиз группы:
Автор рипа: potroks

Код:

General
Unique ID                   : 248703576036384437766970455700335349054 (0xBB1A9101FAF0F950A7F7E4AD5D15CD3E)
Complete name               : Zemlya.Budushego.2015.RUS.BDRip.x264.-HELLYWOOD.mkv
Format                      : Matroska
Format version              : Version 4 / Version 2
File size                   : 1.75 GiB
Duration                    : 2h 10mn
Overall bit rate            : 1 928 Kbps
Movie name                  : Tomorrowland (2015) - HELLYWOOD
Encoded date                : UTC 2010-02-22 21:41:31
Writing application         : mkvmerge v5.8.0 ('No Sleep / Pillow') built on Sep 30 2012 10:57:14
Writing library             : libebml v1.3.0 + libmatroska v1.4.0

Video
ID                          : 1
Format                      : AVC
Format/Info                 : Advanced Video Codec
Format profile              : High@L4.1
Format settings, CABAC      : Yes
Format settings, ReFrames   : 12 frames
Codec ID                    : V_MPEG4/ISO/AVC
Duration                    : 2h 10mn
Bit rate                    : 1 543 Kbps
Width                       : 916 pixels
Height                      : 416 pixels
Display aspect ratio        : 2.2:1
Frame rate mode             : Constant
Frame rate                  : 23.976 fps
Color space                 : YUV
Chroma subsampling          : 4:2:0
Bit depth                   : 8 bits
Scan type                   : Progressive
Bits/(Pixel*Frame)          : 0.169
Stream size                 : 1.37 GiB (78%)
Title                       : potroks
Writing library             : x264 core 148 r2597M e86f3a1
Encoding settings           : cabac=1 / ref=12 / deblock=1:-2:-2 / analyse=0x3:0x133 / me=umh / subme=11 / psy=1 / psy_rd=1.00:0.10 / mixed_ref=1 / me_range=48 / chroma_me=1 / trellis=2 / 8x8dct=1 / cqm=0 / deadzone=21,11 / fast_pskip=0 / chroma_qp_offset=-3 / threads=10 / lookahead_threads=2 / sliced_threads=0 / nr=0 / decimate=1 / interlaced=0 / bluray_compat=0 / constrained_intra=0 / bframes=13 / b_pyramid=2 / b_adapt=2 / b_bias=0 / direct=3 / weightb=1 / open_gop=0 / weightp=2 / keyint=250 / keyint_min=23 / scenecut=40 / intra_refresh=0 / rc=2pass / mbtree=0 / bitrate=1543 / ratetol=1.0 / qcomp=0.70 / qpmin=0 / qpmax=69 / qpstep=4 / cplxblur=20.0 / qblur=0.5 / ip_ratio=1.40 / pb_ratio=1.30 / aq=1:0.80
Language                    : English
Default                     : Yes
Forced                      : No

Audio
ID                          : 2
Format                      : AC-3
Format/Info                 : Audio Coding 3
Mode extension              : CM (complete main)
Format settings, Endianness : Big
Codec ID                    : A_AC3
Duration                    : 2h 10mn
Bit rate mode               : Constant
Bit rate                    : 384 Kbps
Channel(s)                  : 6 channels
Channel positions           : Front: L C R, Side: L R, LFE
Sampling rate               : 48.0 KHz
Compression mode            : Lossy
Stream size                 : 357 MiB (20%)
Title                       : Dub | DD 5.1 @ 384 kbps - Blu-Ray CEE
Language                    : Russian
Default                     : Yes
Forced                      : No

Text #1
ID                          : 3
Format                      : UTF-8
Codec ID                    : S_TEXT/UTF8
Codec ID/Info               : UTF-8 Plain Text
Title                       : Forced
Language                    : Russian
Default                     : Yes
Forced                      : No

Text #2
ID                          : 4
Format                      : UTF-8
Codec ID                    : S_TEXT/UTF8
Codec ID/Info               : UTF-8 Plain Text
Language                    : Russian
Default                     : No
Forced                      : No

Menu
00:00:00.000                : :(01)00:00:00:000
00:16:12.011                : :(02)00:16:12:011
00:21:56.565                : :(03)00:21:56:565
00:28:52.188                : :(04)00:28:52:188
00:37:37.045                : :(05)00:37:37:045
00:46:35.416                : :(06)00:46:35:416
00:55:01.047                : :(07)00:55:01:047
01:11:48.470                : :(08)01:11:48:470
01:19:18.086                : :(09)01:19:18:086
01:26:45.033                : :(10)01:26:45:033
01:30:57.702                : :(11)01:30:57:702
01:38:05.296                : :(12)01:38:05:296
01:49:50.500                : :(13)01:49:50:500
01:56:11.296                : :(14)01:56:11:296
02:01:26.945                : :(15)02:01:26:945

pb.wtf



Скачать Земля будущего через торрент http://i68.fastpic.ru/big/2015/1001/49/d736474907d0cae21b8f3fc61b318049.png Скачать фильм Земля будущего через торрент бесплантно в хорошем качестве Описание: Когда в руки к молодой девушке, жаждущей новых приключений, попадает загадочный предмет, открывающий доступ в параллельную ... 9.5 10 36
Info! Серебряная раздача, засчитывается только 50% скачанного.
Торрент: Зарегистрирован [2015-10-25 10:36] · скачан: 1 040 раз
Статус: √ проверено
Размер: 1.75 GB
Как cкачать? Как скачать Земля будущего через торрент | qTorrent

% Раздел Тема Автор DL S | L
Фильмы 2015 [DVDrip, WEB-DLRip, HDrip] [ 2.05 GB ] Земля будущего / Tomorrowland [2015 BDRip-AVC] killermax2013 Скачать
1 | 0
Фильмы 2015 [DVDrip, WEB-DLRip, HDrip] [ 1.46 GB ] Земля будущего / Tomorrowland [2015 Испания BDRip] DUB Twi7ter Скачать
1 | 0
Фильмы 2015 [DVDrip, WEB-DLRip, HDrip] [ 2.91 GB ] Земля будущего / Tomorrowland [2015 BDRip-AVC] DUB potroks Скачать
1 | 0
Фильмы [HD 720p, 1080p] (Хороший звук DUB, MVO) [ 6.02 GB ] Земля будущего / Tomorrowland [2015 BDRip 720p] DUB potroks Скачать
1 | 0


Последний раз редактировалось: potroks (2015-10-09 06:27), всего редактировалось 1 раз

28-11-2019 20:33  

Отключить всю рекламу на сайте


01-10-2015 16:20 Земля будущего Скачать торрент  

Хороший фильм,а концовка не очень,какая-то детскаяpb.wtf



09-10-2015 06:28 Земля будущего Скачать торрент  

замена на лицензиюpb.wtf



    Дорогой пользователь! Огромная просьба, поблагодарите релизера, оцените раздачу и оставьте свои комментарий, если Вы скачали Земля будущего через торрент бесплатно! Внесите свою лепту в развитие PiratBit!
    Комментировать посты могут только пользователи прошедшие не сложную регистрацию
    Показать сообщения:    

    Земля будущего через торрент
    Скачать бесплатно Земля будущего
    Земля будущего скачать торрент
    Земля будущего смотреть онлайн
    Cкачать фильм Земля будущего бесплатно
    Земля будущего скачать торрент в хорошем качестве
    Земля будущего смотреть онлайн бесплатно в хорошем качестве


    Вы не можете начинать темы
    Вы не можете отвечать на сообщения
    Вы не можете редактировать свои сообщения
    Вы не можете удалять свои сообщения
    Вы не можете голосовать в опросах
    Вы не можете прикреплять файлы к сообщениям
    Вы можете скачивать файлы