Ссылка на приватное зеркало всего за 1$. Внимание количество ограничено!!!

OK

1+1

iTunes

мы

OK

1

WEB-DLRip

Джокер

Пифагор

Ведьмак / The Witcher сериал

iTunes

ПШазам

ОК

Оно 2

iTunes

30
pack

Вам бонус

ВАЖНО

!!Акция!!

Alien_RageХит недели

RePack

Resident Evil 21

ИГРА 18+

pack

RePack

jed

RePack

fifa19

RePack

Assassins Creed: Odyssey

RePack

NEED FOR SPEED™ PAYBACK

4 сезон

9 сезон

Бесстыжие 9 сезон

Все сериалы

все сериалы на PB.wtf

RePack

FAR CRY 5
  

Земля будущего / Tomorrowland (Брэд Бёрд) [2015, фантастика, детектив, приключения, BDRip-AVC] [DUB] [Лицензия / iTunes] pb.wtf

Земля будущего через торрент pb.wtf

Размер: 2.05 GB | Добавлен: 4 года 3 мес. назад | Торрент скачан:295 раз
Скачать  

22-09-2015 13:20 Земля будущего Скачать торрент  

Земля будущего / Tomorrowland Год выхода: 2015
Жанр: фантастика, детектив, приключения
Страна: США
Продолжительность: 02:10:19
Перевод: Профессиональный (полное дублирование)[Лицензия / iTunes]
Субтитры: нет

Режиссер: Брэд Бёрд

В ролях: Джордж Клуни, Бритт Робертсон, Джуди Грир, Тим МакГроу, Кэтрин Хан, Хью Лори, Локлин Манро, Кигэн-Майкл Ки, Пирс Гэнон, Даррен Шалави, Майкл Роу, Алийа О’Брайен, Пол МакДжиллион, Кристофер Бауэр

Описание:
Когда в руки к молодой девушке, жаждущей новых приключений, попадает загадочный предмет, открывающий доступ в параллельную реальность, она вынуждена обратиться за помощью к циничному гению-изобретателю Фрэнку. Кейси должна убедить бывшего вундеркинда раскрыть ей тайну загадочного места, находящегося вне привычной реальности, известного как Земля будущего, и убедить Фрэнка вернуться туда, откуда его однажды изгнали…

СЭМПЛ

Качество: BDRip-AVC
Формат: MKV
Видео кодек: AVC
Аудио кодек: AC3
Видео: AVC at 1874 kb/s, 1024x464 at 23.976 fps
Звук: AC3, 384 kb/s, 6 каналов, 48.0 Кгц • Русский

Автор рипа » • DimmonSS
Уникальный идентификатор : 184556778732769202746228617282956945663 (0x8AD857B892A99EABA72F16F318D1E8FF)
Полное имя : \Tomorrowland.2015.BDRip_AVC.mkv
Формат : Matroska
Версия формата : Version 2
Размер файла : 2,05 Гбайт
Продолжительность : 2 ч. 10 м.
Общий поток : 2258 Кбит/сек
Дата кодирования : UTC 2015-09-24 12:12:10
Программа кодирования : mkvmerge v7.8.0 ('River Man') 32bit built on Apr 3 2015 12:11:22
Библиотека кодирования : libebml v1.3.1 + libmatroska v1.4.2

Видео
Идентификатор : 1
Формат : AVC
Формат/Информация : Advanced Video Codec
Профиль формата : High@L4.1
Параметр CABAC формата : Да
Параметр ReFrames формата : 10 кадров
Идентификатор кодека : V_MPEG4/ISO/AVC
Продолжительность : 2 ч. 10 м.
Битрейт : 1874 Кбит/сек
Ширина : 1024 пикселя
Высота : 464 пикселя
Соотношение сторон : 2,2:1
Режим частоты кадров : Постоянный
Частота кадров : 23,976 кадра/сек
Цветовое пространство : YUV
Субдискретизация насыщенности : 4:2:0
Битовая глубина : 8 бит
Тип развёртки : Прогрессивная
Бит/(Пиксели*Кадры) : 0.165
Размер потока : 1,66 Гбайт (81%)
Библиотека кодирования : x264 core 146 r2538 121396c
Настройки программы : cabac=1 / ref=10 / deblock=1:-2:-2 / analyse=0x3:0x113 / me=umh / subme=11 / psy=1 / psy_rd=1.00:0.00 / mixed_ref=1 / me_range=32 / chroma_me=1 / trellis=2 / 8x8dct=1 / cqm=0 / deadzone=21,11 / fast_pskip=0 / chroma_qp_offset=-2 / threads=6 / lookahead_threads=1 / sliced_threads=0 / nr=0 / decimate=1 / interlaced=0 / bluray_compat=0 / constrained_intra=0 / bframes=3 / b_pyramid=2 / b_adapt=2 / b_bias=0 / direct=3 / weightb=1 / open_gop=0 / weightp=2 / keyint=240 / keyint_min=23 / scenecut=40 / intra_refresh=0 / rc_lookahead=60 / rc=2pass / mbtree=1 / bitrate=1874 / ratetol=1.0 / qcomp=0.60 / qpmin=0 / qpmax=69 / qpstep=4 / cplxblur=20.0 / qblur=0.5 / vbv_maxrate=14000 / vbv_bufsize=14000 / nal_hrd=none / filler=0 / ip_ratio=1.40 / aq=1:1.00
Default : Да
Forced : Нет

Аудио
Идентификатор : 2
Формат : AC-3
Формат/Информация : Audio Coding 3
Расширение режима : CM (complete main)
Параметр Endianness формата : Big
Идентификатор кодека : A_AC3
Продолжительность : 2 ч. 10 м.
Вид битрейта : Постоянный
Битрейт : 384 Кбит/сек
Каналы : 6 каналов
Расположение каналов : Front: L C R, Side: L R, LFE
Частота : 48,0 КГц
Метод сжатия : С потерями
Размер потока : 357 Мбайт (17%)
Default : Да
Forced : Нет[/code]
pb.wtf



Скачать Земля будущего через торрент http://i65.fastpic.ru/big/2015/0922/8a/c5cb07e21f6ad3e109fe3e9b03c0538a.jpg Скачать фильм Земля будущего через торрент бесплантно в хорошем качестве Описание: Когда в руки к молодой девушке, жаждущей новых приключений, попадает загадочный предмет, открывающий доступ в параллельную ... 9.6 10 19
Торрент: Зарегистрирован [2015-10-15 14:10] · скачан: 295 раз
Статус: √ проверено
Размер: 2.05 GB
Как cкачать? Как скачать Земля будущего через торрент | qTorrent

% Раздел Тема Автор DL S | L
Фильмы 2015 [DVDrip, WEB-DLRip, HDrip] [ 1.47 GB ] Земля будущего / Tomorrowland [2015 WEBRip] [Open Matte / Локализованный видеряд] killermax2013 Скачать
1 | 0
Фильмы (Blu-ray, BD-Remux, HDDVD) [ 34.73 GB ] Земля будущего / Tomorrowland [2015 BDRemux 1080p] - [] sheker187 Скачать
1 | 1
T Фильмы [HD 720p, 1080p] (Хороший звук DUB, MVO) [ 7.76 GB ] Земля будущего / Tomorrowland [2015 BDRip 1080p ] solektra13 Скачать
2 | 0
Фильмы (Blu-ray, BD-Remux, HDDVD) [ 28.78 GB ] Земля будущего / Tomorrowland [2015 BDRemux 1080p / ] Ворон Скачать
1 | 0
Фильмы 2015 [DVDrip, WEB-DLRip, HDrip] [ 2.19 GB ] Земля будущего / Tomorrowland [2015 BDRip ""] coc900 Скачать
1 | 0
Фильмы 2015 [DVDrip, WEB-DLRip, HDrip] [ 1.46 GB ] Земля будущего / Tomorrowland [2015 Испания BDRip] DUB Twi7ter Скачать
1 | 0
Фильмы 2015 [DVDrip, WEB-DLRip, HDrip] [ 2.91 GB ] Земля будущего / Tomorrowland [2015 BDRip-AVC] DUB potroks Скачать
2 | 0

28-11-2019 20:33  

Отключить всю рекламу на сайте

14-10-2015 11:34 Земля будущего Скачать торрент  

двд9 или 5 скоро будетpb.wtf



14-10-2015 11:40 Земля будущего Скачать торрент  

клюв писал(а):

двд9 или 5 скоро будет

есть уже в сети давноpb.wtf



    Дорогой пользователь! Огромная просьба, поблагодарите релизера, оцените раздачу и оставьте свои комментарий, если Вы скачали Земля будущего через торрент бесплатно! Внесите свою лепту в развитие PiratBit!
    Комментировать посты могут только пользователи прошедшие не сложную регистрацию
    Показать сообщения:    

    Земля будущего через торрент
    Скачать бесплатно Земля будущего
    Земля будущего скачать торрент
    Земля будущего смотреть онлайн
    Cкачать фильм Земля будущего бесплатно
    Земля будущего скачать торрент в хорошем качестве
    Земля будущего смотреть онлайн бесплатно в хорошем качестве


    Вы не можете начинать темы
    Вы не можете отвечать на сообщения
    Вы не можете редактировать свои сообщения
    Вы не можете удалять свои сообщения
    Вы не можете голосовать в опросах
    Вы не можете прикреплять файлы к сообщениям
    Вы можете скачивать файлы