Ссылка на приватное зеркало нашего сайта всего за 1$. Внимание количество ограничено!!!

2 сезон

iTunes

1 сезон

1

iTunes

iTunes

iTunes

1 сезон

RePack

30

ИГРА 18+

pack

ВАЖНО

!!Акция!!

Alien_RageХит недели

RePack

MK11
pack

Забери бонус

RePack

jed

!!Акция!!

Alien_Rage

RePack

fifa19

RePack

Assassins Creed: Odyssey

RePack

NEED FOR SPEED™ PAYBACK

4 сезон

9 сезон

Бесстыжие 9 сезон

Все сериалы

все сериалы на PB.wtf

RePack

FAR CRY 5
  

Одержимость / Irresistible (Энн Тернер) [2006, триллер, драма, детектив, BDRip 720p by msltel] DVO pb.wtf

Одержимость через торрент pb.wtf

Размер: 2.81 GB | Добавлен: 5 лет назад | Торрент скачан:97 раз
Скачать  

16-10-2015 07:17 Одержимость Скачать торрент  

Название: Одержимость
Оригинальное название: Irresistible
Год выпуска: 2006
Страна: Австралия
Жанр: триллер, драма, детектив
Продолжительность: 01:38:32
Перевод: профессиональный многоголосый

Режиссёр: Энн Тернер

В ролях: Сьюзен Сарандон, Сэм Нилл, Эмили Блант, Аманда Даг, Чарльз Тингуэлл, Уильям МакАйннс, Джорджи Паркер, Терри Норрис, Хезер Митчел, Джилл Форстер, Женевьев Пико, Кэролин Бок, Алетеа МакГрат, Аманда Доуг, Элинор Каспар, Эбони Рутерфорд, Джон Сэдлер, Кэсси Гарднер, Бэрри Фридлендер, Эмиральд Тэннер, Флер Мерфи, Натали Элефтерос, Эмма Клэр Форд, Питер Бут

Описание: Софи Хартлей убеждена, что её преследуют. Ей кажется, что Мара, обаятельная сотрудница той же фирмы, где работает муж Софи, хочет забрать у неё всё — мужа, детей и... жизнь. С каждым днём её уверенность растёт, и навязчивая идея превращается в настоящую паранойю. Но никто не верит Софи. И, вынужденная доказывать, что она не сошла с ума, Софи начинает собственное расследование. Но открывшаяся правда оказывается гораздо страшнее, чем её самые худшие опасения...



Качество: BDRip 720p Сравнение с исходником
Формат: MKV
Видео: MPEG-4 AVC, 3624 Kбит/с, 1280x714, 25 кадр/с
Аудио 1: русский, AC3, 192 kbps, 2 ch, 48 kHz [профессиональный двухголосый]
Аудио 2: английский, AC3, 192 kbps, 2 ch, 48 kHz [оригинал]
Субтитры 1: русские
Субтитры 2: английские
Общее
Уникальный идентификатор : 231092443998409304444583236670439199393 (0xADDAC928FF4473D4889D95B379F292A1)
Полное имя : D:VideoОдержимость.2006.BDRip.720p.mkv
Формат : Matroska
Версия формата : Version 4 / Version 2
Размер файла : 2,81 Гбайт
Продолжительность : 1 ч. 38 м.
Общий поток : 4089 Кбит/сек
Название фильма : BDRip -- STarankov
Дата кодирования : UTC 2015-10-15 13:02:29
Программа кодирования : mkvmerge v8.2.0 ('World of Adventure') 64bit
Библиотека кодирования : libebml v1.3.1 + libmatroska v1.4.2
DURATION : 01:32:25.879000000
NUMBER_OF_FRAMES : 1075
NUMBER_OF_BYTES : 40793
_STATISTICS_WRITING_APP : mkvmerge v8.2.0 ('World of Adventure') 64bit
_STATISTICS_WRITING_DATE_UTC : 2015-10-15 13:02:29
_STATISTICS_TAGS : BPS DURATION NUMBER_OF_FRAMES NUMBER_OF_BYTES

Видео
Идентификатор : 1
Формат : AVC
Формат/Информация : Advanced Video Codec
Профиль формата : High@L4.1
Параметр CABAC формата : Да
Параметр ReFrames формата : 9 кадров
Идентификатор кодека : V_MPEG4/ISO/AVC
Продолжительность : 1 ч. 38 м.
Битрейт : 3624 Кбит/сек
Ширина : 1280 пикселей
Высота : 714 пикселей
Соотношение сторон : 16:9
Режим частоты кадров : Постоянный
Частота кадров : 25,000 кадров/сек
Цветовое пространство : YUV
Субдискретизация насыщенности : 4:2:0
Битовая глубина : 8 бит
Тип развёртки : Прогрессивная
Бит/(Пиксели*Кадры) : 0.159
Размер потока : 2,49 Гбайт (89%)
Библиотека кодирования : x264 core 146 r2538 121396c
Настройки программы : cabac=1 / ref=9 / deblock=1:-2:-2 / analyse=0x3:0x113 / me=umh / subme=10 / psy=1 / psy_rd=1.00:0.15 / mixed_ref=1 / me_range=32 / chroma_me=1 / trellis=2 / 8x8dct=1 / cqm=0 / deadzone=21,11 / fast_pskip=1 / chroma_qp_offset=-3 / threads=6 / lookahead_threads=1 / sliced_threads=0 / nr=0 / decimate=1 / interlaced=0 / bluray_compat=0 / constrained_intra=0 / bframes=10 / b_pyramid=2 / b_adapt=2 / b_bias=0 / direct=1 / weightb=1 / open_gop=0 / weightp=2 / keyint=250 / keyint_min=25 / scenecut=40 / intra_refresh=0 / rc_lookahead=40 / rc=crf / mbtree=0 / crf=18.0 / qcomp=0.60 / qpmin=0 / qpmax=69 / qpstep=4 / vbv_maxrate=40000 / vbv_bufsize=50000 / crf_max=0.0 / nal_hrd=none / filler=0 / ip_ratio=1.40 / pb_ratio=1.30 / aq=1:1.00
Язык : English
Default : Да
Forced : Нет
DURATION : 01:38:32.560000000
NUMBER_OF_FRAMES : 147814
NUMBER_OF_BYTES : 2736739833
_STATISTICS_WRITING_APP : mkvmerge v8.2.0 ('World of Adventure') 64bit
_STATISTICS_WRITING_DATE_UTC : 2015-10-15 13:02:29
_STATISTICS_TAGS : BPS DURATION NUMBER_OF_FRAMES NUMBER_OF_BYTES

Аудио #1
Идентификатор : 2
Формат : AC-3
Формат/Информация : Audio Coding 3
Расширение режима : CM (complete main)
Параметр Endianness формата : Big
Идентификатор кодека : A_AC3
Продолжительность : 1 ч. 38 м.
Вид битрейта : Постоянный
Битрейт : 192 Кбит/сек
Каналы : 2 канала
Расположение каналов : Front: L R
Частота : 48,0 КГц
Метод сжатия : С потерями
Размер потока : 135 Мбайт (5%)
Заголовок : DVO (Союз Видео)
Язык : Russian
Default : Да
Forced : Нет

Аудио #2
Идентификатор : 3
Формат : AC-3
Формат/Информация : Audio Coding 3
Расширение режима : CM (complete main)
Параметр Endianness формата : Big
Идентификатор кодека : A_AC3
Продолжительность : 1 ч. 38 м.
Вид битрейта : Постоянный
Битрейт : 192 Кбит/сек
Каналы : 2 канала
Расположение каналов : Front: L R
Частота : 48,0 КГц
Метод сжатия : С потерями
Размер потока : 135 Мбайт (5%)
Заголовок : Original
Язык : English
Default : Нет
Forced : Нет

Текст #1
Идентификатор : 4
Формат : UTF-8
Идентификатор кодека : S_TEXT/UTF8
Идентификатор кодека/Информация : UTF-8 Plain Text
Заголовок : русский
Язык : Russian
Default : Нет
Forced : Нет

Текст #2
Идентификатор : 5
Формат : UTF-8
Идентификатор кодека : S_TEXT/UTF8
Идентификатор кодека/Информация : UTF-8 Plain Text
Заголовок : английский
Default : Нет
Forced : Нет
pb.wtf



Скачать Одержимость через торрент http://i67.fastpic.ru/big/2015/1016/e6/74795c1933c42b3afa1ac17093a0a3e6.jpg Скачать фильм Одержимость через торрент бесплантно в хорошем качестве Описание: Софи Хартлей убеждена, что её преследуют. Ей кажется, что Мара, обаятельная сотрудница той же фирмы, где работает муж Софи, хочет ... 10 10 1
Торрент: Зарегистрирован [2015-10-16 07:17] · скачан: 97 раз
Статус: √ проверено
Размер: 2.81 GB
Как cкачать? Как скачать Одержимость через торрент | qTorrent

% Раздел Тема Автор DL S | L
Фильмы [HD 720p, 1080p] (Хороший звук DUB, MVO) [ 7.44 GB ] Одержимость / Irresistible [2006 BDRip 1080p by msltel] DVO msltel Скачать
1 | 0
Фильмы 2006-2008 [ 1.82 GB ] Одержимость / Irresistible [2006 BDRip AVC by msltel] DVO msltel Скачать
1 | 0

28-11-2019 20:33  

Отключить всю рекламу на сайте

    Дорогой пользователь! Огромная просьба, поблагодарите релизера, оцените раздачу и оставьте свои комментарий, если Вы скачали Одержимость через торрент бесплатно! Внесите свою лепту в развитие PiratBit!
    Комментировать посты могут только пользователи прошедшие не сложную регистрацию
    Показать сообщения:    

    Одержимость через торрент
    Скачать бесплатно Одержимость
    Одержимость скачать торрент
    Одержимость смотреть онлайн
    Cкачать фильм Одержимость бесплатно
    Одержимость скачать торрент в хорошем качестве
    Одержимость смотреть онлайн бесплатно в хорошем качестве


    Вы не можете начинать темы
    Вы не можете отвечать на сообщения
    Вы не можете редактировать свои сообщения
    Вы не можете удалять свои сообщения
    Вы не можете голосовать в опросах
    Вы не можете прикреплять файлы к сообщениям
    Вы можете скачивать файлы