Ссылка на приватное зеркало нашего сайта всего за 1$. Внимание количество ограничено!!!

2 сезон

iTunes

1 сезон

1

iTunes

iTunes

iTunes

1 сезон

RePack

30

ИГРА 18+

pack

ВАЖНО

!!Акция!!

Alien_RageХит недели

RePack

MK11
pack

Забери бонус

RePack

jed

!!Акция!!

Alien_Rage

RePack

fifa19

RePack

Assassins Creed: Odyssey

RePack

NEED FOR SPEED™ PAYBACK

4 сезон

9 сезон

Бесстыжие 9 сезон

Все сериалы

все сериалы на PB.wtf

RePack

FAR CRY 5
  

Хранитель Луны / Mune, le gardien de la lune (Александр Эбоян, Бенуа Филиппон) [2014, мультфильм, WEB-DLRip, Дубляж] iTunes pb.wtf

Хранитель Луны через торрент pb.wtf

Размер: 1.36 GB | Добавлен: 5 лет назад | Торрент скачан:526 раз
Скачать  

16-10-2015 08:45 Хранитель Луны Скачать торрент  

Хранитель Луны / Mune, le gardien de la lune«Он не спасет мир. Он спасет пять миров!»

  • Год выхода: 2014
  • Жанр: мультфильм
  • Страна: Франция
  • Продолжительность: 01:21:26
  • Перевод: Дубляж - [Лицензия / iTunes]
  • Режиссер: Александр Эбоян, Бенуа Филиппон
  • В ролях:

    Омар Си (Sohone, озвучка), Изиа Ижлен (Glim, озвучка), Майкл Грегорио (Mune, озвучка), Шафик Ахмад, Бенуа Аллемане (Yule, озвучка), Шеннон Арчи (Groupie, озвучка), Федор Аткин (Leeyoon, озвучка), Джошуа Дж. Баллард (Mune, озвучка), Дэмиен Буассо (Mune's father, озвучка), Эммануэль Кюртиль (Zucchini, озвучка), Софи де Фюрст, Тревор Дивэлл (Sohone / Zucchini, озвучка)


  • На диковинной планете, где смена дня и ночи осуществляется вручную, юного фавна Мьюна неожиданно избирают хранителем Луны. Но к своему ужасу, он почти сразу теряет ее! Воспользовавшись этим, царь подземного мира Некрос крадет и гасит Солнце. Теперь, чтобы спасти планету, Мьюн вместе с отважной девочкой из воска Глим и заносчивым Сохоном, хранителем Солнца, должны отправиться в удивительное и опасное путешествие.

  • Качество: WEB-DLRip
  • Формат: AVI
  • Видео кодек: XviD
  • Аудио кодек: AC3
  • Видео: XviD, 720x304 (2.35:1), 1905 kbps, 25 fps, 0,348 bpp
  • Аудио: русский /AC3 / 5.1 / 48 kHz / 384 kbps / 16 bit

    Код:

    General
    Complete name                            : H:\\XrAn1te1i.Lun1.2014.D.WEB-DLRip.avi
    Format                                   : AVI
    Format/Info                              : Audio Video Interleave
    File size                                : 1.36 GiB
    Duration                                 : 1h 21mn
    Overall bit rate                         : 2 393 Kbps
    Writing application                      : VirtualDubMod 1.5.10.3 | www.virtualdub-fr.org || (build 2550/release)
    Writing library                          : VirtualDubMod build 2550/release

    Video
    ID                                       : 0
    Format                                   : MPEG-4 Visual
    Format profile                           : Advanced Simple@L5
    Format settings, BVOP                    : 2
    Format settings, QPel                    : No
    Format settings, GMC                     : No warppoints
    Format settings, Matrix                  : Default (MPEG)
    Codec ID                                 : XVID
    Codec ID/Hint                            : XviD
    Duration                                 : 1h 21mn
    Bit rate                                 : 1 906 Kbps
    Width                                    : 720 pixels
    Height                                   : 304 pixels
    Display aspect ratio                     : 2.35:1
    Frame rate                               : 25.000 fps
    Color space                              : YUV
    Chroma subsampling                       : 4:2:0
    Bit depth                                : 8 bits
    Scan type                                : Progressive
    Compression mode                         : Lossy
    Bits/(Pixel*Frame)                       : 0.348
    Stream size                              : 1.08 GiB (80%)
    Writing library                          : XviD 1.2.1 (UTC 2008-12-04)

    Audio
    ID                                       : 1
    Format                                   : AC-3
    Format/Info                              : Audio Coding 3
    Mode extension                           : CM (complete main)
    Codec ID                                 : 2000
    Duration                                 : 1h 21mn
    Bit rate mode                            : Constant
    Bit rate                                 : 384 Kbps
    Channel(s)                               : 6 channels
    Channel positions                        : Front: L C R, Side: L R, LFE
    Sampling rate                            : 48.0 KHz
    Bit depth                                : 16 bits
    Compression mode                         : Lossy
    Stream size                              : 224 MiB (16%)
    Alignment                                : Split accross interleaves

    Скриншоты:


    © Оформление by -Lexx- pb.wtf



  • Скачать Хранитель Луны через торрент http://pic.kartinco.top/images/6/stazu.jpg Скачать фильм Хранитель Луны через торрент бесплантно в хорошем качестве qw.png На диковинной планете, где смена дня и ночи осуществляется вручную, юного фавна Мьюна неожиданно избирают хранителем Луны. Но к ... 9.3 10 31
    Торрент: Зарегистрирован [2015-10-16 08:45] · скачан: 526 раз
    Статус: √ проверено
    Размер: 1.36 GB
    Как cкачать? Как скачать Хранитель Луны через торрент | qTorrent

    % Раздел Тема Автор DL S | L
    Зарубежные Мультфильмы (WEB-DL 720p, 1080p) [ 2.78 GB ] Хранитель Луны / Mune le gardien de la lune [2014 мультфильм WEB-DL 1080p ] -Lexx- Скачать
    1 | 0

    28-11-2019 20:33  

    Отключить всю рекламу на сайте

    25-10-2015 09:28 Хранитель Луны Скачать торрент  

    Наконец то вышел. Спасибо автору.pb.wtf



      Дорогой пользователь! Огромная просьба, поблагодарите релизера, оцените раздачу и оставьте свои комментарий, если Вы скачали Хранитель Луны через торрент бесплатно! Внесите свою лепту в развитие PiratBit!
      Комментировать посты могут только пользователи прошедшие не сложную регистрацию
      Показать сообщения:    

      Хранитель Луны через торрент
      Скачать бесплатно Хранитель Луны
      Хранитель Луны скачать торрент
      Хранитель Луны смотреть онлайн
      Cкачать фильм Хранитель Луны бесплатно
      Хранитель Луны скачать торрент в хорошем качестве
      Хранитель Луны смотреть онлайн бесплатно в хорошем качестве


      Вы не можете начинать темы
      Вы не можете отвечать на сообщения
      Вы не можете редактировать свои сообщения
      Вы не можете удалять свои сообщения
      Вы не можете голосовать в опросах
      Вы не можете прикреплять файлы к сообщениям
      Вы можете скачивать файлы