>

5.6

iTunes

6.1

MVO

5.7

MVO

1

7.4

1 сезон

6.8

iTunes

7.2

1 сезон

13

6.7

1 сезон

8.3

RePack

30

Deluxe

pack

9.9

Лицензия

ВАЖНО

ИГРА 18+

pack

7.3

RePack

MK11

7.7

RePack

jed

7.8

RePack

fifa19

8.5

RePack

RDR2

RePack

NEED FOR SPEED™ PAYBACK

4 сезон

9 сезон

Бесстыжие 9 сезон

Все сериалы

все сериалы на PB.wtf

RePack

FAR CRY 5

Anonymous, доброй ночи, мы катастрофически не успеваем собрать деньги на оплату серверов, помогите нам пожалуйста 5,10,15р., для нас важна любая помощь . В качестве благодарности мы отключим Вам всю рекламу на сайте (укажите свой ник в строку Ваше имя)!

×
  
Magnet ссылка

Круглянский мост (Александр Мороз) [1989, СССР, драма, военный, SATRip от AVP Studio] pb.wtf

Круглянский мост через торрент pb.wtf

Размер: 744 MB | Добавлен: 5 лет 11 мес. назад | Торрент скачан:21 раз
Смотреть онлайн Круглянский мост | Скачать    Ребята, помогите собрать деньги на оплату серверов!!!

16-10-2015 09:59 Круглянский мост Скачать торрент  

Круглянский мост
Страна: СССР
Производство: Беларусьфильм

Жанр: драма, военный
Год выпуска: 1989
Продолжительность: 01:16:56

Перевод: Не требуется
Cубтитры: нет
Оригинальная аудиодорожка: русский

Режиссер: Александр Мороз

В ролях:
Александр Кукареко, Владимир Грицевский, Владимир Бобриков, Петр Солдатов, Александр Маевский, Леонид Дьячков, Эдуард Мурашов, Алла Ельяшевич, Игнат Бутько, Фелиция Бутько, Татьяна Харламова, Жанна Лейко...
Полный список актёров

Описание:
Повесть военных лет.
По одноименной повести Василя Быкова.
Четверо солдат получили задание взорвать не имеющий стратегического значения мост. Приказ непонятен и тем не менее, не возражая начальству, герои отправляются в путь...

Источник: DVB
Качество видео: SATRip
Формат видео: AVI

Видео: 640x480 (4:3), 25 fps, XviD ~ 1214 kbps avg, 0.158 bit/pixel
Аудио: 48 kHz, MP3 2.0, 128 kbps

Раздача от:
Общее
Полное имя : Kruglyanskiy.most.1989.SATRip-745_[New-team]_by_AVP_Studio.avi
Формат : AVI
Формат/Информация : Audio Video Interleave
Размер файла : 744 Мбайт
Продолжительность : 1 ч. 16 м.
Общий поток : 1352 Кбит/сек
Программа кодирования : VirtualDubModRus 1.5.10.2 (build 2542/release)
Библиотека кодирования : VirtualDubMod build 2542/release

Видео
Идентификатор : 0
Формат : MPEG-4 Visual
Профиль формата : Advanced Simple@L5
Параметр BVOP формата : 1
Параметр QPel формата : Нет
Параметр GMC формата : Без точки перехода
Параметр матрицы формата : Выборочная
Идентификатор кодека : XVID
Идентификатор кодека/Подсказка : XviD
Продолжительность : 1 ч. 16 м.
Битрейт : 1214 Кбит/сек
Ширина : 640 пикселей
Высота : 480 пикселей
Соотношение сторон : 4:3
Частота кадров : 25,000 кадров/сек
Цветовое пространство : YUV
Субдискретизация насыщенности : 4:2:0
Битовая глубина : 8 бит
Тип развёртки : Прогрессивная
Метод сжатия : С потерями
Бит/(Пиксели*Кадры) : 0.158
Размер потока : 668 Мбайт (90%)
Библиотека кодирования : XviD 73

Аудио
Идентификатор : 1
Формат : MPEG Audio
Версия формата : Version 1
Профиль формата : Layer 3
Режим : Joint stereo
Расширение режима : MS Stereo
Идентификатор кодека : 55
Идентификатор кодека/Подсказка : MP3
Продолжительность : 1 ч. 16 м.
Вид битрейта : Постоянный
Битрейт : 128 Кбит/сек
Каналы : 2 канала
Частота : 48,0 КГц
Метод сжатия : С потерями
Размер потока : 70,4 Мбайт (9%)
Выравнивание : Соединение по промежуткам
Продолжительность промежутка : 40 мс. (1,00 видеокадр)
Время предзагрузки промежутка : 504 мс
pb.wtf



Скачать Круглянский мост через торрент http://s57.radikal.ru/i156/1510/b5/65cf85b5bfed.png Скачать, смотреть онлайн Круглянский мост бесплантно в хорошем качестве Описание:Повесть военных лет.По одноименной повести Василя Быкова.Четверо солдат получили задание взорвать не имеющий стратегического ... 10 10 3
Торрент: Зарегистрирован [2015-10-16 09:59] · скачан: 21 раз
Статус: √ проверено
Размер: 744 MB
Как cкачать? Как скачать Круглянский мост через торрент | UTorrent

% Раздел Тема Автор DL S | L
Кино СССР [ 1.09 GB ] Круглянский мост [1989 СССР военный SATRip-AVC от AVP Studio] AVP Studio Скачать
1 | 0
Кино СССР [ 1.09 GB ] Круглянский мост [1989 СССР военный SATRip от AVP Studio] AVP Studio Скачать
1 | 0

28-11-2019 20:33  

Отключить всю рекламу на сайте

    Дорогой пользователь! Огромная просьба, поблагодарите релизера, оцените раздачу и оставьте свои комментарий, если Вы скачали Круглянский мост через торрент бесплатно!
    Комментировать посты могут только пользователи прошедшие не сложную регистрацию
    Показать сообщения:    

    Круглянский мост через торрент
    Скачать бесплатно Круглянский мост
    Круглянский мост скачать торрент
    Круглянский мост смотреть онлайн
    Cкачать фильм Круглянский мост бесплатно
    Круглянский мост скачать торрент в хорошем качестве
    Круглянский мост смотреть онлайн бесплатно в хорошем качестве


    Вы не можете начинать темы
    Вы не можете отвечать на сообщения
    Вы не можете редактировать свои сообщения
    Вы не можете удалять свои сообщения
    Вы не можете голосовать в опросах
    Вы не можете прикреплять файлы к сообщениям
    Вы можете скачивать файлы