Мега распродажа FORZA HORIZON 4 ULTIMATE+ВСЕ DLC+ОНЛАЙН всего за 499р. 349 руб. (супер цена). Внимание количество ограничено!!!

Лицензия

30

iTunes

мы

iTunes

1

1 сезон

Чернобыль

1 сезон

Ральф против интернета

MVO

Покемон. Детектив Пикачу

8 сезон

Игра престолов

iTunes

1+1

ИГРА 18+

pack

ВАЖНО

!!Акция!!

Alien_RageХит недели

RePack

Resident Evil 21
pack

RePack

Metro:Exodus

!!Акция!!

Alien_Rage

RePack

fifa19

RePack

Assassins Creed: Odyssey

RePack

NEED FOR SPEED™ PAYBACK

3 сезон

9 сезон

Бесстыжие 9 сезон

Все сериалы

все сериалы на PB.wtf

RePack

FAR CRY 5
Ребята, катастрофически не хватает 2730р. для оплаты серверов за МАЙ (всвязи с блокировками трафик упал в 3 раза), 1-2р., выручайте.
  

Операция «Мёртвый снег» / Død snø (Томми Виркола) [2009 г., ужасы, комедия, HDRip by Dean24] (Дубляж Лицензия) pb.wtf

Операция «Мёртвый снег» через торрент pb.wtf

Размер: 1.46 GB | Добавлен: 3 года 8 мес. назад | Торрент скачан:21 раз
Скачать  

16-10-2015 12:58 Операция «Мёртвый снег» Скачать торрент  

Операция «Мёртвый снег» / Død snø
Год выпуска: 2009
Страна: Норвегия
Жанр: ужасы, комедия
Продолжительность: 01:31:30
Перевод: Дубляж | Лицензия
Субтитры: Нет

Режиссер: Томми Виркола
Продюссер: Томас Эвьен, Терье Стромстад, Магне Эк
Сценарий: Томми Виркола, Стиг Фроде Хенриксен

Бюджет: $800 000
Премьера в мире: 9 января 2009



В ролях: Вегар Хоел, Стиг Фроде Хенриксен, Шарлотта Фрогнер, Ласс Валдал, Иви Кассет Ростен, Еппе Леурсен, Дженни Скавлан, Эни Даль Торп, Бьорн Сундквист, Орхан Гамст

Описание: Группа студентов-медиков отправляется в горы, чтобы провести там несколько дней на каникулах. Вместо отдыха и развлечений в декорациях идиллического норвежского пейзажа молодые люди попадают в кошмарный сон. Им приходится бороться за жизнь в схватке с пропавшим здесь когда-то во время войны отрядом немецких солдат, превратившихся теперь в зомби...

Качество: HDRip | BDRip 720p
Формат: AVI
Видео кодек: XviD
Аудио кодек: AC3
Видео: 704x384 (1.83:1), 24.000 fps, XviD build 50 ~1889 kbps avg, 0.29 bit/pixel
Аудио: 48 kHz, AC3 Dolby Digital, 3/2 (L,C,R,l,r) + LFE ch, ~384 kbps



Автор рипа: Dean24
|
Общее
Полное имя : D:\Мои документы\Фильмы\Сайт\Død.snø.HDRip.avi
Формат : AVI
Формат/Информация : Audio Video Interleave
Размер файла : 1,46 Гбайт
Продолжительность : 1 ч. 31 м.
Общий поток : 2283 Кбит/сек
Программа кодирования : VirtualDubMod 1.5.10.3 | www.virtualdub-fr.org || (build 2550/release)
Библиотека кодирования : VirtualDubMod build 2550/release

Видео
Идентификатор : 0
Формат : MPEG-4 Visual
Профиль формата : Advanced Simple@L5
Параметр BVOP формата : 3
Параметр QPel формата : Нет
Параметр GMC формата : Без точки перехода
Параметр матрицы формата : Default (H.263)
Идентификатор кодека : XVID
Идентификатор кодека/Подсказка : XviD
Продолжительность : 1 ч. 31 м.
Битрейт : 1889 Кбит/сек
Ширина : 704 пикселя
Высота : 384 пикселя
Соотношение сторон : 1,85:1
Частота кадров : 24,000 кадра/сек
Цветовое пространство : YUV
Субдискретизация насыщенности : 4:2:0
Битовая глубина : 8 бит
Тип развёртки : Прогрессивная
Метод сжатия : С потерями
Бит/(Пиксели*Кадры) : 0.291
Размер потока : 1,21 Гбайт (83%)
Библиотека кодирования : XviD 1.2.1 (UTC 2008-12-04)

Аудио
Идентификатор : 1
Формат : AC-3
Формат/Информация : Audio Coding 3
Расширение режима : CM (complete main)
Параметр Endianness формата : Big
Идентификатор кодека : 2000
Продолжительность : 1 ч. 31 м.
Вид битрейта : Постоянный
Битрейт : 384 Кбит/сек
Каналы : 6 каналов
Расположение каналов : Front: L C R, Side: L R, LFE
Частота : 48,0 КГц
Битовая глубина : 16 бит
Метод сжатия : С потерями
Размер потока : 251 Мбайт (17%)
Выравнивание : Разделение по промежуткам
Продолжительность промежутка : 42 мс. (1,00 видеокадр)
Время предзагрузки промежутка : 500 мс.

pb.wtf



Скачать Операция «Мёртвый снег» через торрент http://i60.fastpic.ru/big/2015/1016/05/1ead3569dc7f3a309132baf474503905.png Скачать фильм Операция «Мёртвый снег» через торрент бесплантно в хорошем качестве Описание: Группа студентов-медиков отправляется в горы, чтобы провести там несколько дней на каникулах. Вместо отдыха и развлечений в ... 10 10 5
Info! Серебряная раздача, засчитывается только 50% скачанного.
Торрент: Зарегистрирован [2015-10-16 12:58] · скачан: 21 раз
Статус: √ проверено
Размер: 1.46 GB
Как cкачать? Как скачать Операция «Мёртвый снег» через торрент | qTorrent

% Раздел Тема Автор DL S | L
Фильмы 2014 [DVDrip, WEB-DLRip, HDrip] [ 1.46 GB ] Операция «Мертвый снег» 2 / Død Snø 2 [2014 HDRip многоголосый ] кэп Скачать
1 | 0
Фильмы [HD 720p, 1080p] (Хороший звук DUB, MVO) [ 7.45 GB ] Операция «Мертвый снег» 2 / Død Snø 2 [2014 BDRip 1080p MVO [] от R.G. HD-Films Ворон Скачать
1 | 0
Фильмы [HD 720p, 1080p] (Хороший звук DUB, MVO) [ 4.62 GB ] Операция «Мёртвый снег» / Død snø [2009 BDRip 720p by msltel] DUB 2 x AVO VO msltel Скачать
1 | 0
Фильмы [HD 720p, 1080p] (Хороший звук DUB, MVO) [ 11.97 GB ] Операция «Мёртвый снег» / Død snø [2009 BDRip 1080p by msltel] DUB 2 x AVO VO msltel Скачать
1 | 0
Фильмы 2009 [ 3.08 GB ] Операция «Мёртвый снег» / Død snø [2009 BDRip AVC by msltel] DUB 2 x AVO VO msltel Скачать
1 | 0
Фильмы 2014 [DVDrip, WEB-DLRip, HDrip] [ 2.18 GB ] Операция «Мертвый снег» 2 / Død Snø 2 [2014 Норвегия Исландия BDRip-AVC многоголосый [] Ворон Скачать
1 | 0
Фильмы 2014 [DVDrip, WEB-DLRip, HDrip] [ 2.05 GB ] Операция «Мертвый снег» 2 / Død Snø 2 [2014 Норвегия Исландия HDRip многоголосый [] Ворон Скачать
1 | 0


>> Регистрируемся здесь <<






Отзывы и комментарии о схеме читаем и пишем здесь: ---> Отзывы и комментарии о схеме

Новые благодарочки в телеграм довольных пользователей:
скриншот   скриншот   скриншот   скриншот   скриншот
    Дорогой пользователь! Огромная просьба, поблагодарите релизера, оцените раздачу и оставьте свои комментарий, если Вы скачали Операция «Мёртвый снег» через торрент бесплатно! Внесите свою лепту в развитие PiratBit!
    Комментировать посты могут только пользователи прошедшие не сложную регистрацию
    Показать сообщения:    

    Операция «Мёртвый снег» через торрент
    Скачать бесплатно Операция «Мёртвый снег»
    Операция «Мёртвый снег» скачать торрент
    Операция «Мёртвый снег» смотреть онлайн
    Cкачать фильм Операция «Мёртвый снег» бесплатно
    Операция «Мёртвый снег» скачать торрент в хорошем качестве
    Операция «Мёртвый снег» смотреть онлайн бесплатно в хорошем качестве


    Вы не можете начинать темы
    Вы не можете отвечать на сообщения
    Вы не можете редактировать свои сообщения
    Вы не можете удалять свои сообщения
    Вы не можете голосовать в опросах
    Вы не можете прикреплять файлы к сообщениям
    Вы можете скачивать файлы