Ссылка на приватное зеркало всего за 1$. Внимание количество ограничено!!!

iTunes

iTunes

iTunes

1

iTunes

iTunes

iTunes

iTunes

iTunes

30
pack

$ от Little Big

ВАЖНО

!!Акция!!

Alien_RageХит недели

RePack

Resident Evil 21

ИГРА 18+

pack

RePack

jed

!!Акция!!

Alien_Rage

RePack

fifa19

RePack

Assassins Creed: Odyssey

RePack

NEED FOR SPEED™ PAYBACK

4 сезон

9 сезон

Бесстыжие 9 сезон

Все сериалы

все сериалы на PB.wtf

RePack

FAR CRY 5
  

Рой / The Hive (Дэвид Яровески) [2015, ужасы, триллер, WEB-DL 720p] Любительский (двухголосый) [den904 & DeadSno] pb.wtf

Рой через торрент pb.wtf

Размер: 2.91 GB | Добавлен: 4 года 8 мес. назад | Торрент скачан:162 раза
Скачать  

16-10-2015 15:31 Рой Скачать торрент  

Рой / The Hive

  • Год выхода: 2015
  • Жанр: ужасы, триллер
  • Страна: США
  • Продолжительность: 01:33:09
  • Перевод: Любительский (двухголосый) [den904 & DeadSno]
  • Примечание: присутствует ненормативная лексика
  • Автор перевода: dsa69
  • Режиссер: Дэвид Яровески
  • В ролях:

    Гэбриел Бассо (Adam), Талита Бейтман (Kayla), Стефен Блекхарт, Мэри Элизабет Бойлэн (Receptionist), Майк Эскамиллья, Велинда Годфри (Camp Counselor), Александра Гросси (Current Girl), Тодд Хантер (Pilot), Ethan Krimsky (Surgical Assistant), Маделайне Петш, Кэтрин Прескотт (Katie), Орилия Шепперс (Megan)


  • На школьные каникулы компания молодых людей устраивается в лагерь вожатыми. В разграл летнего отдыха рядом с их лагерем терпит крушение самолет, на борту которого перевозили какой-то неизвестный вирус, воздействующий на мозг человека особым образом...

  • Качество: WEB-DL 720p
  • Формат: MKV
  • Видео кодек: AVC
  • Аудио кодек: AC3
  • Видео: AVC, 1280x572 (2.25:1), 3803 kbps, 23,976 fps, 0,217 bpp
  • Аудио №1: русский / AC3 / 2.0 / 48 kHz / 192 kbps / 16 bit |DVO|
  • Аудио №2: английский / AC3 / 5.1 / 48 kHz / 384 kbps / 16 bit
  • Навигация по главам: есть

    Код:

    General
    Unique ID                                : 188625974376382891662444207911174447131 (0x8DE80A8E50E41A4AA37DD1731170A01B)
    Complete name                            : H:\Roj.2015.L2.WEB-DL.720p.mkv
    Format                                   : Matroska
    Format version                           : Version 2
    File size                                : 2.91 GiB
    Duration                                 : 1h 33mn
    Overall bit rate                         : 4 469 Kbps
    Encoded date                             : UTC 2015-10-15 17:10:44
    Writing application                      : mkvmerge v7.8.0 ('River Man') 32bit built on Apr  3 2015 12:11:22
    Writing library                          : libebml v1.3.1 + libmatroska v1.4.2

    Video
    ID                                       : 1
    Format                                   : AVC
    Format/Info                              : Advanced Video Codec
    Format profile                           : High@L3.1
    Format settings, CABAC                   : No
    Format settings, ReFrames                : 2 frames
    Codec ID                                 : V_MPEG4/ISO/AVC
    Duration                                 : 1h 33mn
    Bit rate                                 : 3 804 Kbps
    Width                                    : 1 280 pixels
    Height                                   : 572 pixels
    Display aspect ratio                     : 2.25:1
    Frame rate                               : 23.976 fps
    Color space                              : YUV
    Chroma subsampling                       : 4:2:0
    Bit depth                                : 8 bits
    Scan type                                : Progressive
    Bits/(Pixel*Frame)                       : 0.217
    Stream size                              : 2.48 GiB (85%)
    Language                                 : English
    Default                                  : Yes
    Forced                                   : No
    Color primaries                          : BT.709-5, BT.1361, IEC 61966-2-4, SMPTE RP177
    Transfer characteristics                 : BT.709-5, BT.1361
    Matrix coefficients                      : BT.709-5, BT.1361, IEC 61966-2-4 709, SMPTE RP177

    Audio #1
    ID                                       : 2
    Format                                   : AC-3
    Format/Info                              : Audio Coding 3
    Mode extension                           : CM (complete main)
    Codec ID                                 : A_AC3
    Duration                                 : 1h 33mn
    Bit rate mode                            : Constant
    Bit rate                                 : 192 Kbps
    Channel(s)                               : 2 channels
    Channel positions                        : Front: L R
    Sampling rate                            : 48.0 KHz
    Bit depth                                : 16 bits
    Compression mode                         : Lossy
    Stream size                              : 128 MiB (4%)
    Language                                 : Russian
    Default                                  : Yes
    Forced                                   : No

    Audio #2
    ID                                       : 3
    Format                                   : AC-3
    Format/Info                              : Audio Coding 3
    Mode extension                           : CM (complete main)
    Codec ID                                 : A_AC3
    Duration                                 : 1h 33mn
    Bit rate mode                            : Constant
    Bit rate                                 : 384 Kbps
    Channel(s)                               : 6 channels
    Channel positions                        : Front: L C R, Side: L R, LFE
    Sampling rate                            : 48.0 KHz
    Bit depth                                : 16 bits
    Compression mode                         : Lossy
    Stream size                              : 256 MiB (9%)
    Language                                 : English
    Default                                  : No
    Forced                                   : No

    Menu
    00:00:00.000                             : en:Opening Sequence
    00:06:09.000                             : en:Get Away
    00:12:03.000                             : en:I Can't Remember
    00:17:58.000                             : en:Apology Doodle
    00:25:05.000                             : en:Anyone There
    00:31:25.000                             : en:Any Idea
    00:37:08.000                             : en:Help Me Out
    00:42:10.000                             : en:Look At Me
    00:47:23.000                             : en:This Is An Emergency
    00:55:06.000                             : en:Won't Make It
    01:00:17.000                             : en:The Truth Is
    01:06:20.000                             : en:When Do I Begin
    01:11:57.000                             : en:We're Waiting
    01:19:23.000                             : en:No Memories At All
    01:23:56.000                             : en:You Don't Understand
    01:28:56.000                             : en:End Credits

    Скриншоты:


    © Оформление by -Lexx- pb.wtf
    K-Lexx- писал(а):

    Сэмпл в формате AVI, для оценки качества звука.



  • Скачать Рой через торрент http://pic.kartinco.top/images/6/stazu.jpg Скачать фильм Рой через торрент бесплантно в хорошем качестве qw.png На школьные каникулы компания молодых людей устраивается в лагерь вожатыми. В разграл летнего отдыха рядом с их лагерем терпит ... 9.2 10 14
    Торрент: Зарегистрирован [2015-10-16 15:31] · скачан: 162 раз
    Статус: √ проверено
    Размер: 2.91 GB
    Как cкачать? Как скачать Рой через торрент | qTorrent

    28-11-2019 20:33  

    Отключить всю рекламу на сайте

    20-10-2015 11:30 Рой Скачать торрент  

    Теперь я знаю что любовь побеждает даже заблёванных зомби экстрасенсов.....pb.wtf



      Дорогой пользователь! Огромная просьба, поблагодарите релизера, оцените раздачу и оставьте свои комментарий, если Вы скачали Рой через торрент бесплатно! Внесите свою лепту в развитие PiratBit!
      Комментировать посты могут только пользователи прошедшие не сложную регистрацию
      Показать сообщения:    

      Рой через торрент
      Скачать бесплатно Рой
      Рой скачать торрент
      Рой смотреть онлайн
      Cкачать фильм Рой бесплатно
      Рой скачать торрент в хорошем качестве
      Рой смотреть онлайн бесплатно в хорошем качестве


      Вы не можете начинать темы
      Вы не можете отвечать на сообщения
      Вы не можете редактировать свои сообщения
      Вы не можете удалять свои сообщения
      Вы не можете голосовать в опросах
      Вы не можете прикреплять файлы к сообщениям
      Вы можете скачивать файлы