Ссылка на приватное зеркало всего за 1$. Внимание количество ограничено!!!

OK

1+1

iTunes

мы

OK

1

WEB-DLRip

Джокер

Пифагор

Ведьмак / The Witcher сериал

iTunes

ПШазам

ОК

Оно 2

iTunes

30
pack

Вам бонус

ВАЖНО

!!Акция!!

Alien_RageХит недели

RePack

Resident Evil 21

ИГРА 18+

pack

RePack

jed

RePack

fifa19

RePack

Assassins Creed: Odyssey

RePack

NEED FOR SPEED™ PAYBACK

4 сезон

9 сезон

Бесстыжие 9 сезон

Все сериалы

все сериалы на PB.wtf

RePack

FAR CRY 5
  

Хлоя и Тео / Chloe and Theo (Эзна Сэндс) [2015, драма, комедия, HDRip] MVO [Официальный звук] pb.wtf

Хлоя и Тео через торрент pb.wtf

Размер: 1.43 GB | Добавлен: 4 года 3 мес. назад | Торрент скачан:184 раза
Скачать  

16-10-2015 18:22 Хлоя и Тео Скачать торрент  

Хлоя и Тео / Chloe and Theo«From the northern ice comes a gentler kind of hero»

  • Год выхода: 2015
  • Жанр: драма, комедия
  • Страна: Канада, США
  • Продолжительность: 01:21:42
  • Перевод: Профессиональный (многоголосый) [Официальный звук]
  • Режиссер: Эзна Сэндс
  • В ролях:

    Theo Ikummaq (Theo), Дакота Джонсон (Chloe), Мира Сорвино (Monica), Андре Де Шилдс (Mr. Sweet), Эшли Спрингер (Tyler), Эрик Орам (Sancho), Лоуренс Баллард (Male Interrogator), Ларри Кинг (Larry King), Элизабет Масуччи (Female Interrogator), Хассан Мэннинг (Shai), Peter Henry Arnatsiaq (Theo's Nephew), Брэндон Бойд (Central Park Singer)


  • Эскимос Тео, из Арктики, едет в Нью-Йорк, чтобы предупредить мировых лидеров о катастрофическом влиянии глобального потепления на планете. По прибытии он встречает бездомную девушку по имени Хлоя, которая решила ему в этом помочь. Вместе они изменят мир.

  • Качество: HDRip
  • Формат: AVI
  • Видео кодек: XviD
  • Аудио кодек: AC3
  • Видео: XviD, 720x304 (2.35:1), 1750 kbps, 23,976 fps, 0,334 bpp
  • Аудио №1: русский / AC3 / 2.0 / 48 kHz / 192 kbps / 16 bit |MVO|
  • Аудио №2: английский / AC3 / 5.1 / 48 kHz / 448 kbps / 16 bit

    Код:

    General
    Complete name                            : H:\Chloe.and.Theo.2015.P.HDRip.avi
    Format                                   : AVI
    Format/Info                              : Audio Video Interleave
    File size                                : 1.43 GiB
    Duration                                 : 1h 21mn
    Overall bit rate                         : 2 500 Kbps
    Writing application                      : VirtualDubMod 1.5.10.2 (build 2540/release)
    Writing library                          : VirtualDubMod build 2540/release

    Video
    ID                                       : 0
    Format                                   : MPEG-4 Visual
    Format profile                           : Advanced Simple@L5
    Format settings, BVOP                    : 2
    Format settings, QPel                    : No
    Format settings, GMC                     : No warppoints
    Format settings, Matrix                  : Default (H.263)
    Muxing mode                              : Packed bitstream
    Codec ID                                 : XVID
    Codec ID/Hint                            : XviD
    Duration                                 : 1h 21mn
    Bit rate                                 : 1 750 Kbps
    Width                                    : 720 pixels
    Height                                   : 304 pixels
    Display aspect ratio                     : 2.35:1
    Frame rate                               : 23.976 fps
    Color space                              : YUV
    Chroma subsampling                       : 4:2:0
    Bit depth                                : 8 bits
    Scan type                                : Progressive
    Compression mode                         : Lossy
    Bits/(Pixel*Frame)                       : 0.334
    Stream size                              : 1 023 MiB (70%)
    Writing library                          : XviD 66

    Audio #1
    ID                                       : 1
    Format                                   : AC-3
    Format/Info                              : Audio Coding 3
    Mode extension                           : CM (complete main)
    Codec ID                                 : 2000
    Duration                                 : 1h 21mn
    Bit rate mode                            : Constant
    Bit rate                                 : 192 Kbps
    Channel(s)                               : 2 channels
    Channel positions                        : Front: L R
    Sampling rate                            : 48.0 KHz
    Bit depth                                : 16 bits
    Compression mode                         : Lossy
    Stream size                              : 112 MiB (8%)
    Alignment                                : Split accross interleaves

    Audio #2
    ID                                       : 2
    Format                                   : AC-3
    Format/Info                              : Audio Coding 3
    Mode extension                           : CM (complete main)
    Codec ID                                 : 2000
    Duration                                 : 1h 21mn
    Bit rate mode                            : Constant
    Bit rate                                 : 448 Kbps
    Channel(s)                               : 6 channels
    Channel positions                        : Front: L C R, Side: L R, LFE
    Sampling rate                            : 48.0 KHz
    Bit depth                                : 16 bits
    Compression mode                         : Lossy
    Stream size                              : 262 MiB (18%)
    Alignment                                : Split accross interleaves

    Скриншоты:


    © Оформление by -Lexx- pb.wtf



  • Скачать Хлоя и Тео через торрент http://pic.kartinco.top/images/6/stazu.jpg Скачать фильм Хлоя и Тео через торрент бесплантно в хорошем качестве qw.png Эскимос Тео, из Арктики, едет в Нью-Йорк, чтобы предупредить мировых лидеров о катастрофическом влиянии глобального потепления на ... 8.5 10 13
    Торрент: Зарегистрирован [2015-10-16 18:22] · скачан: 184 раз
    Статус: T временная
    Размер: 1.43 GB
    Как cкачать? Как скачать Хлоя и Тео через торрент | qTorrent

    % Раздел Тема Автор DL S | L
    T Фильмы 2015 (Звук TS, Cam, VO, DVO) [ 1.46 GB ] Хлоя и Тео / Chloe and Theo [2015 WEB-DLRip] DVO Ворон Скачать
    1 | 0
    T Фильмы 2015 [DVDrip, WEB-DLRip, HDrip] [ 1.37 GB ] Хлоя и Тео / Chloe and Theo [2015 WEB-DLRip Чистый Ворон Скачать
    1 | 0
    T Фильмы (WEB-DL 720p, 1080p) [ 2.67 GB ] Хлоя и Тео / Chloe and Theo [2015 WEB-DL 720p [Официальный звук] Ворон Скачать
    1 | 0
    T Фильмы 2015 (Звук TS, Cam, VO, DVO) [ 751 MB ] Хлоя и Тео / Chloe and Theo [2015 WEB-DLRip] DVO Ворон Скачать
    1 | 0

    28-11-2019 20:33  

    Отключить всю рекламу на сайте

    16-10-2015 18:40 Хлоя и Тео Скачать торрент  

    Судя по трейлеру обоссаное пендосовское pb.wtf



    16-10-2015 19:11 Хлоя и Тео Скачать торрент  

    gromjkee писал(а):

    Судя по трейлеру обоссаное пендосовское

    ты не прав, но фильм на очень - очень любителя. хехеpb.wtf



    17-10-2015 12:01 Хлоя и Тео Скачать торрент  

    Типа экологи в СШП не видят изменений... Спутники не наблюдают Арктику, научных экспедиций нет... Только эскимос может это им сообщить... ну и бред...pb.wtf



    23-10-2015 14:23 Хлоя и Тео Скачать торрент  

    den2244 писал(а):

    Типа экологи в СШП не видят изменений... Спутники не наблюдают Арктику, научных экспедиций нет... Только эскимос может это им сообщить... ну и бред...

    Совершенно верно, сопли. Спасибо за раздачу.pb.wtf



    07-01-2016 18:20 Хлоя и Тео Скачать торрент  

    не стоит время тратить, похожеpb.wtf



      Дорогой пользователь! Огромная просьба, поблагодарите релизера, оцените раздачу и оставьте свои комментарий, если Вы скачали Хлоя и Тео через торрент бесплатно! Внесите свою лепту в развитие PiratBit!
      Комментировать посты могут только пользователи прошедшие не сложную регистрацию
      Показать сообщения:    

      Хлоя и Тео через торрент
      Скачать бесплатно Хлоя и Тео
      Хлоя и Тео скачать торрент
      Хлоя и Тео смотреть онлайн
      Cкачать фильм Хлоя и Тео бесплатно
      Хлоя и Тео скачать торрент в хорошем качестве
      Хлоя и Тео смотреть онлайн бесплатно в хорошем качестве


      Вы не можете начинать темы
      Вы не можете отвечать на сообщения
      Вы не можете редактировать свои сообщения
      Вы не можете удалять свои сообщения
      Вы не можете голосовать в опросах
      Вы не можете прикреплять файлы к сообщениям
      Вы можете скачивать файлы