1 сезон

1 сезон

iTunes

1

КиноПоиск HD

Кинопоиск HD

iTunes

13

1 сезон

RePack

30

Новинка

ВАЖНО

ИГРА 18+

pack

RePack

MK11
pack

Легкие деньги

RePack

jed

RePack

fifa19

RePack

RDR2

RePack

NEED FOR SPEED™ PAYBACK

4 сезон

9 сезон

Бесстыжие 9 сезон

Все сериалы

все сериалы на PB.wtf

RePack

FAR CRY 5
  
Magnet ссылка

Хребет дьявола / The Devil's Backbone / El espinazo del diablo (Гильермо Дель Торо) [2001 г., ужасы, драма, HDRip by Dean24] (Дубляж Лицензия) pb.wtf

Хребет дьявола через торрент pb.wtf

Размер: 1.76 GB | Добавлен: 5 лет 5 мес. назад | Торрент скачан:59 раз
Скачать  

17-10-2015 08:58 Хребет дьявола Скачать торрент  

Хребет дьявола / The Devil's Backbone / El espinazo del diablo
Год выпуска: 2001
Страна: Испания, Мексика, Аргентина
Жанр: ужасы, драма
Продолжительность: 01:47:26
Перевод: Дубляж | Лицензия
Субтитры: Нет

Режиссер: Гильермо Дель Торо
Продюссер: Агустин Альмодовар, Берта Наварро, Педро Альмодовар
Сценарий: Гильермо дель Торо, Антонио Трасоррас, Давид Муньос

Бюджет: $4 500 000
Премьера в мире: 20 апреля 2001



В ролях: Мариса Паредес, Эдуардо Норьега, Федерико Луппи, Фернандо Тиельве, Иниго Гарсес, Ирена Виседо, Хосе Мануэль Лоренсо, Франсиско Маэстре, Хунио Вальверде, Берта Охеа

Описание: Пугающий рассказ о 12-летнем Карлосе, который после смерти отца попадает в школу Санта-Лусии на попечение директрисы Кармен и профессора Касареса. Отец мальчика был мятежником, убитым в сражении против режима Франко. И хотя приют перегружен большим количеством детей, директор школы сочувствующе принимает молодого Карлоса.

Качество: HDRip | BDRip 720p
Формат: AVI
Видео кодек: XviD
Аудио кодек: AC3
Видео: 704x384 (1.83:1), 23.976 fps, XviD build 50 ~1944 kbps avg, 0.30 bit/pixel
Аудио: 48 kHz, AC3 Dolby Digital, 3/2 (L,C,R,l,r) + LFE ch, ~384 kbps



Автор рипа: Dean24
|
Общее
Полное имя : D:\Мои документы\Фильмы\Сайт\El.espinazo.del.diablo.HDRip.avi
Формат : AVI
Формат/Информация : Audio Video Interleave
Размер файла : 1,76 Гбайт
Продолжительность : 1 ч. 47 м.
Общий поток : 2338 Кбит/сек
Программа кодирования : VirtualDubMod 1.5.10.3 | www.virtualdub-fr.org || (build 2550/release)
Библиотека кодирования : VirtualDubMod build 2550/release

Видео
Идентификатор : 0
Формат : MPEG-4 Visual
Профиль формата : Advanced Simple@L5
Параметр BVOP формата : 3
Параметр QPel формата : Нет
Параметр GMC формата : Без точки перехода
Параметр матрицы формата : Default (H.263)
Идентификатор кодека : XVID
Идентификатор кодека/Подсказка : XviD
Продолжительность : 1 ч. 47 м.
Битрейт : 1945 Кбит/сек
Ширина : 704 пикселя
Высота : 384 пикселя
Соотношение сторон : 1,85:1
Частота кадров : 23,976 кадра/сек
Цветовое пространство : YUV
Субдискретизация насыщенности : 4:2:0
Битовая глубина : 8 бит
Тип развёртки : Прогрессивная
Метод сжатия : С потерями
Бит/(Пиксели*Кадры) : 0.300
Размер потока : 1,46 Гбайт (83%)
Библиотека кодирования : XviD 1.2.1 (UTC 2008-12-04)

Аудио
Идентификатор : 1
Формат : AC-3
Формат/Информация : Audio Coding 3
Расширение режима : CM (complete main)
Параметр Endianness формата : Big
Идентификатор кодека : 2000
Продолжительность : 1 ч. 47 м.
Вид битрейта : Постоянный
Битрейт : 384 Кбит/сек
Каналы : 6 каналов
Расположение каналов : Front: L C R, Side: L R, LFE
Частота : 48,0 КГц
Битовая глубина : 16 бит
Метод сжатия : С потерями
Размер потока : 296 Мбайт (16%)
Выравнивание : Разделение по промежуткам
Продолжительность промежутка : 42 мс. (1,00 видеокадр)
Время предзагрузки промежутка : 500 мс.

pb.wtf



Скачать Хребет дьявола через торрент http://i58.fastpic.ru/big/2015/1017/29/4fbc4cd946ce8ff17b7f43490b7b8229.png Скачать фильм Хребет дьявола через торрент бесплантно в хорошем качестве Описание: Пугающий рассказ о 12-летнем Карлосе, который после смерти отца попадает в школу Санта-Лусии на попечение директрисы Кармен и ... 9.8 10 8
Info! Золотая раздача, скачанное не засчитывается.
Торрент: Зарегистрирован [2015-10-17 08:58] · скачан: 59 раз
Статус: √ проверено
Размер: 1.76 GB
Как cкачать? Как скачать Хребет дьявола через торрент | UTorrent

28-11-2019 20:33  

Отключить всю рекламу на сайте

    Дорогой пользователь! Огромная просьба, поблагодарите релизера, оцените раздачу и оставьте свои комментарий, если Вы скачали Хребет дьявола через торрент бесплатно! Внесите свою лепту в развитие PiratBit!
    Комментировать посты могут только пользователи прошедшие не сложную регистрацию
    Показать сообщения:    

    Хребет дьявола через торрент
    Скачать бесплатно Хребет дьявола
    Хребет дьявола скачать торрент
    Хребет дьявола смотреть онлайн
    Cкачать фильм Хребет дьявола бесплатно
    Хребет дьявола скачать торрент в хорошем качестве
    Хребет дьявола смотреть онлайн бесплатно в хорошем качестве


    Вы не можете начинать темы
    Вы не можете отвечать на сообщения
    Вы не можете редактировать свои сообщения
    Вы не можете удалять свои сообщения
    Вы не можете голосовать в опросах
    Вы не можете прикреплять файлы к сообщениям
    Вы можете скачивать файлы