Ссылка на приватное зеркало всего за 1$. Внимание количество ограничено!!!

iTunes

iTunes

iTunes

1

iTunes

iTunes

iTunes

iTunes

iTunes

30
pack

$ от Little Big

ВАЖНО

!!Акция!!

Alien_RageХит недели

RePack

Resident Evil 21

ИГРА 18+

pack

RePack

jed

!!Акция!!

Alien_Rage

RePack

fifa19

RePack

Assassins Creed: Odyssey

RePack

NEED FOR SPEED™ PAYBACK

4 сезон

9 сезон

Бесстыжие 9 сезон

Все сериалы

все сериалы на PB.wtf

RePack

FAR CRY 5
  

Орлеан (Андрей Прошкин) [2015, комедия, триллер, WEB-DLRip] [Русский] pb.wtf

Орлеан через торрент pb.wtf

Размер: 1.46 GB | Добавлен: 4 года 7 мес. назад | Торрент скачан:1379 раз
Скачать  

17-10-2015 19:45 Орлеан Скачать торрент  

Орлеан

  • Год выхода: 2015
  • Жанр: комедия, триллер

  • Страна: Россия
  • Продолжительность: 01:50:19
  • Перевод: Не требуется
  • Режиссер: Андрей Прошкин
  • В ролях:

    Елена Лядова (Лидка), Виктор Сухоруков (экзекутор), Виталий Хаев (Неволин), Олег Ягодин (Рудик), Тимофей Трибунцев (Боря Амаретто), Павел Табаков (Игорь), Евгений Сытый (полицейский 1), Александр Бавтриков (полицейский 2), Азамат Нигманов (сержант), Полина Шулика (девочка), Эллада Мешвелиани (секретарь экзекутора), Анна Рудь (Маркитантова)


  • На русский провинциальный город с необычным названием Орлеан надвигается буря. Пока что о ней не догадываются его жители: парикмахерша Лида спит с кем ни попадя; врач Рудик водит к себе девиц, пользуясь служебным положением; полицейский не гнушается убийством; а фокусник, кажется, и вправду перепиливает девушек на сцене.

  • Качество: WEB-DLRip
  • Формат: AVI
  • Видео кодек: XviD
  • Аудио кодек: AC3
  • Видео: XviD, 720x304 (2.35:1), 1428 kbps, 24 fps, 0,272 bpp
  • Аудио: AC3 / 5.1 / 48 kHz / 384 kbps / 16 bit

    Код:

    General
    Complete name                            : H:\0pLe4H.2015.O.WEB-DLRip.avi
    Format                                   : AVI
    Format/Info                              : Audio Video Interleave
    File size                                : 1.46 GiB
    Duration                                 : 1h 50mn
    Overall bit rate                         : 1 896 Kbps
    Writing application                      : VirtualDubMod 1.5.10.3 | www.virtualdub-fr.org || (build 2550/release)
    Writing library                          : VirtualDubMod build 2550/release

    Video
    ID                                       : 0
    Format                                   : MPEG-4 Visual
    Format profile                           : Advanced Simple@L5
    Format settings, BVOP                    : 2
    Format settings, QPel                    : No
    Format settings, GMC                     : No warppoints
    Format settings, Matrix                  : Default (H.263)
    Codec ID                                 : XVID
    Codec ID/Hint                            : XviD
    Duration                                 : 1h 50mn
    Bit rate                                 : 1 428 Kbps
    Width                                    : 720 pixels
    Height                                   : 304 pixels
    Display aspect ratio                     : 2.35:1
    Frame rate                               : 24.000 fps
    Color space                              : YUV
    Chroma subsampling                       : 4:2:0
    Bit depth                                : 8 bits
    Scan type                                : Progressive
    Compression mode                         : Lossy
    Bits/(Pixel*Frame)                       : 0.272
    Stream size                              : 1.10 GiB (75%)
    Writing library                          : XviD 1.2.1 (UTC 2008-12-04)

    Audio
    ID                                       : 1
    Format                                   : AC-3
    Format/Info                              : Audio Coding 3
    Mode extension                           : CM (complete main)
    Codec ID                                 : 2000
    Duration                                 : 1h 50mn
    Bit rate mode                            : Constant
    Bit rate                                 : 384 Kbps
    Channel(s)                               : 6 channels
    Channel positions                        : Front: L C R, Side: L R, LFE
    Sampling rate                            : 48.0 KHz
    Bit depth                                : 16 bits
    Compression mode                         : Lossy
    Stream size                              : 303 MiB (20%)
    Alignment                                : Split accross interleaves

    Скриншоты:


    © Оформление by -Lexx- pb.wtf



  • Скачать Орлеан через торрент http://pic.kartinco.top/images/6/stazu.jpg Скачать фильм Орлеан через торрент бесплантно в хорошем качестве qw.png На русский провинциальный город с необычным названием Орлеан надвигается буря. Пока что о ней не догадываются его жители: ... 9.8 10 34
    Info! Золотая раздача, скачанное не засчитывается.
    Торрент: Зарегистрирован [2015-10-17 19:45] · скачан: 1 379 раз
    Статус: √ проверено
    Размер: 1.46 GB
    Как cкачать? Как скачать Орлеан через торрент | qTorrent

    % Раздел Тема Автор DL S | L
    T Наши новые фильмы 2015 [ 2.16 GB ] Орлеан [2015 WEB-DLRip] coc900 Скачать
    1 | 0
    Наши фильмы (HD, WEB-DL 720p, 1080p) [ 3.81 GB ] Орлеан [2015 WEB-DL 1080p] [Pусский] -Lexx- Скачать
    1 | 0
    Фильмы 2011 [ 744 MB ] Мальчишник в Новом Орлеане / Mardi Gras: Spring Break [2011 DVDRip лицензия] 744mb SD Скачать
    1 | 0
    Фильмы 2011 [ 1.37 GB ] Мальчишник в Новом Орлеане / Mardi Gras: Spring Break [2011 DVDRip] shuller Скачать
    1 | 0
    Фильмы (DVD фильмы) [ 5.1 GB ] Мальчишник в Новом Орлеане / Mardi Gras: Spring Break [2011 DVD9] R5 «Columbia/Sony» voovaz Скачать
    1 | 0

    28-11-2019 20:33  

    Отключить всю рекламу на сайте

    18-10-2015 09:58 Орлеан Скачать торрент  

    шикардосный гротеск
    для думающих людей = искусное аллегорическое преломление высоких моральных ценностей до идиосинкратического бреда путем излома логики псевдофилософией
    З.Ы. особый респект доставляющему саундтреку = в лице Тигровых Лилийpb.wtf



    18-10-2015 12:08 Орлеан Скачать торрент  

    Описание заинтриговало.Не знаю можно ли сравнивать,но в своё время другой гротеск Город зеро очень понравился.pb.wtf



    23-10-2015 10:08 Орлеан Скачать торрент  

    отзывов очень много, посмотрю, спасибоpb.wtf



      Дорогой пользователь! Огромная просьба, поблагодарите релизера, оцените раздачу и оставьте свои комментарий, если Вы скачали Орлеан через торрент бесплатно! Внесите свою лепту в развитие PiratBit!
      Комментировать посты могут только пользователи прошедшие не сложную регистрацию
      Показать сообщения:    

      Орлеан через торрент
      Скачать бесплатно Орлеан
      Орлеан скачать торрент
      Орлеан смотреть онлайн
      Cкачать фильм Орлеан бесплатно
      Орлеан скачать торрент в хорошем качестве
      Орлеан смотреть онлайн бесплатно в хорошем качестве


      Вы не можете начинать темы
      Вы не можете отвечать на сообщения
      Вы не можете редактировать свои сообщения
      Вы не можете удалять свои сообщения
      Вы не можете голосовать в опросах
      Вы не можете прикреплять файлы к сообщениям
      Вы можете скачивать файлы