1 сезон

1 сезон

iTunes

1

КиноПоиск HD

Кинопоиск HD

iTunes

13

1 сезон

RePack

30

Новинка

ВАЖНО

ИГРА 18+

pack

RePack

MK11
pack

Легкие деньги

RePack

jed

RePack

fifa19

RePack

RDR2

RePack

NEED FOR SPEED™ PAYBACK

4 сезон

9 сезон

Бесстыжие 9 сезон

Все сериалы

все сериалы на PB.wtf

RePack

FAR CRY 5
  
Magnet ссылка

Великолепная афера / Matchstick Men (Ридли Скотт / Ridley Scott) [2003, США, триллер, драма, комедия, BDRip-AVC от sokol_ok] Dub + MVO pb.wtf

Великолепная афера через торрент pb.wtf

Раздают: 1 [ 0 KB/s ]
Размер: 2.18 GB | Добавлен: 5 лет 5 мес. назад | Торрент скачан:161 раз
Скачать  

17-10-2015 20:40 Великолепная афера Скачать торрент  

Великолепная афера
Matchstick Men

«Солги. Обмани. Укради. Отдохни. Повтори»




Страна: США
Жанр: триллер, драма, комедия, криминал
Год выпуска: 2003
Продолжительность: 01:56:09

Перевод: Профессиональный (полное дублирование) [R5]
Профессиональный (многоголосый, закадровый)

Субтитры: русские, английские (SDH)
Оригинальная аудиодорожка: нет

Режиссер: Ридли Скотт / Ridley Scott

В ролях: Николас Кейдж, Сэм Рокуэлл, Элисон Ломан, Брюс Олтмен, Брюс МакГилл, Дженни О’Хара, Стив Истин, Бет Грант, Шейла Келли, Фрэн Кранц, Тим Келлехер, Найджел Гиббс

Описание:
Опытный мошенник Рой и его амбициозный протеже Фрэнк занимаются мелким надувательством в сфере торговли. Их фокусы приносят от нескольких сот до нескольких тысяч баксов, что, в конечном счете, делает их партнерство прибыльным. Однако, если с «работой» у Роя все в порядке, то личная жизнь полна проблем: он одинок, помешан на чистоте, и ко всему прочему не совсем психически здоров. На курсах психотерапии, на которые его заставил пойти Фрэнк, совершенно неожиданно Рой узнает о существовании дочери по имени Анжела.
Сначала появление дочки нарушает тщательно спланированный образ жизни ее отца, но вскоре Рой осознает все радости общения с близким человеком. После того как Анжела в итоге узнает чем занимается ее отец, по ее настоянию мошенники начинают обучать ее некоторым своим «приемам» торговли. К смешанному чувству удивления, гордости и тревоги отца, она показывает поразительный талант к мошенничеству...


Релиз:

Автор рипа: Stalker oK

Сэмпл

Качество видео: BDRip-AVC [Blu-ray Remux 1080p]
Формат видео: MKV
Видео кодек: AVC
Аудио кодек: AC3
Видео: 1919 Кбит/сек, 1056x440 (2.40:1), 23,976 кадр/сек, AVC
Аудио №1: русский, 384 Кбит/сек, 48 КГц, 16 бит, 5.1, AC3
Аудио №2: русский, 384 Кбит/сек, 48 КГц, 16 бит, 5.1, AC3
Навигация по главам: есть
General
Unique ID : 225738701077048510129548167698635681040 (0xA9D3B141336DCB74972B758C2EA9ED10)
Complete name : N:\Rips\Matchstick.Men\Matchstick.Men.2003.BDRip-AVC.DUB.MVO.2.18Gb...stalkerok.new-team.mkv
Format : Matroska
File size : 2.18 GiB
Duration : 1h 56mn
Overall bit rate : 2 689 Kbps
Movie name : Matchstick Men (2003) (New-Team) (Rip by Stalker oK)
Encoded date : UTC 2015-10-17 19:38:32
Writing application : mkvmerge v7.9.0 ('Birds') 64bit
Writing library : libebml v1.3.1 + libmatroska v1.4.2

Video
ID : 1
Format : AVC
Format/Info : Advanced Video Codec
Format profile : High@L4.1
Format settings, CABAC : Yes
Format settings, ReFrames : 12 frames
Codec ID : V_MPEG4/ISO/AVC
Duration : 1h 56mn
Bit rate : 1 919 Kbps
Width : 1 056 pixels
Height : 440 pixels
Display aspect ratio : 2.40:1
Frame rate : 23.976 fps
Color space : YUV
Chroma subsampling : 4:2:0
Bit depth : 8 bits
Scan type : Progressive
Bits/(Pixel*Frame) : 0.172
Stream size : 1.52 GiB (69%)
Writing library : x264 core 146 r2538kMod 121396c
Encoding settings : cabac=1 / ref=12 / deblock=1:-3:-3 / analyse=0x3:0x133 / me=umh / subme=11 / psy=1 / fade_compensate=0.00 / psy_rd=1.00:0.15 / mixed_ref=1 / me_range=48 / chroma_me=1 / trellis=2 / 8x8dct=1 / cqm=0 / deadzone=21,11 / fast_pskip=0 / chroma_qp_offset=-3 / threads=12 / lookahead_threads=3 / sliced_threads=0 / nr=0 / decimate=0 / interlaced=0 / bluray_compat=0 / constrained_intra=0 / fgo=0 / bframes=12 / b_pyramid=2 / b_adapt=2 / b_bias=0 / direct=3 / weightb=1 / open_gop=0 / weightp=2 / keyint=240 / keyint_min=23 / scenecut=40 / intra_refresh=0 / rc_lookahead=40 / rc=2pass / mbtree=0 / bitrate=1919 / ratetol=1.0 / qcomp=0.70 / qpmin=0 / qpmax=69 / qpstep=4 / cplxblur=20.0 / qblur=0.5 / vbv_maxrate=50000 / vbv_bufsize=62500 / nal_hrd=none / filler=0 / ip_ratio=1.40 / pb_ratio=1.30 / aq=3:0.90

Audio #1
ID : 2
Format : AC-3
Format/Info : Audio Coding 3
Mode extension : CM (complete main)
Codec ID : A_AC3
Duration : 1h 56mn
Bit rate mode : Constant
Bit rate : 384 Kbps
Channel(s) : 6 channels
Channel positions : Front: L C R, Side: L R, LFE
Sampling rate : 48.0 KHz
Bit depth : 16 bits
Compression mode : Lossy
Stream size : 319 MiB (14%)
Language : Russian

Audio #2
ID : 3
Format : AC-3
Format/Info : Audio Coding 3
Mode extension : CM (complete main)
Codec ID : A_AC3
Duration : 1h 56mn
Bit rate mode : Constant
Bit rate : 384 Kbps
Channel(s) : 6 channels
Channel positions : Front: L C R, Side: L R, LFE
Sampling rate : 48.0 KHz
Bit depth : 16 bits
Compression mode : Lossy
Stream size : 319 MiB (14%)
Language : Russian

Text #1
ID : 4
Format : UTF-8
Codec ID : S_TEXT/UTF8
Codec ID/Info : UTF-8 Plain Text
Language : Russian

Text #2
ID : 5
Format : UTF-8
Codec ID : S_TEXT/UTF8
Codec ID/Info : UTF-8 Plain Text
Title : SDH
Language : English

Menu
00:00:00.000 : en:Chapter 1
00:02:04.665 : en:Chapter 2
00:05:21.278 : en:Chapter 3
00:09:46.168 : en:Chapter 4
00:13:52.998 : en:Chapter 5
00:20:01.200 : en:Chapter 6
00:24:17.538 : en:Chapter 7
00:30:22.612 : en:Chapter 8
00:33:49.902 : en:Chapter 9
00:36:10.418 : en:Chapter 10
00:40:32.847 : en:Chapter 11
00:45:39.110 : en:Chapter 12
00:49:02.563 : en:Chapter 13
00:52:47.998 : en:Chapter 14
00:54:59.670 : en:Chapter 15
00:59:43.371 : en:Chapter 16
01:02:29.244 : en:Chapter 17
01:06:16.931 : en:Chapter 18
01:10:13.250 : en:Chapter 19
01:16:07.436 : en:Chapter 20
01:19:19.087 : en:Chapter 21
01:22:05.962 : en:Chapter 22
01:27:06.804 : en:Chapter 23
01:30:59.537 : en:Chapter 24
01:34:16.233 : en:Chapter 25
01:38:14.012 : en:Chapter 26
01:43:19.275 : en:Chapter 27
01:45:00.335 : en:Chapter 28
01:47:58.470 : en:Chapter 29
01:51:25.511 : en:Chapter 30
pb.wtf



Скачать Великолепная афера через торрент http://i72.fastpic.ru/big/2015/0531/46/68ef8a2783b58e5344cc30bbd3f1b046.png Скачать фильм Великолепная афера через торрент бесплантно в хорошем качестве Описание:Опытный мошенник Рой и его амбициозный протеже Фрэнк занимаются мелким надувательством в сфере торговли. Их фокусы приносят от ... 10 10 4
Info! Золотая раздача, скачанное не засчитывается.
Торрент: Зарегистрирован [2015-10-17 20:40] · скачан: 161 раз
Статус: √ проверено
Размер: 2.18 GB
Как cкачать? Как скачать Великолепная афера через торрент | UTorrent

% Раздел Тема Автор DL S | L
Фильмы [HD 720p, 1080p] (Хороший звук DUB, MVO) [ 11.64 GB ] Великолепная афера / Matchstick Men [2003 BDRip 1080p] DUB + 2х MVO -Lexx- Скачать
1 | 0

28-11-2019 20:33  

Отключить всю рекламу на сайте

    Дорогой пользователь! Огромная просьба, поблагодарите релизера, оцените раздачу и оставьте свои комментарий, если Вы скачали Великолепная афера через торрент бесплатно! Внесите свою лепту в развитие PiratBit!
    Комментировать посты могут только пользователи прошедшие не сложную регистрацию
    Показать сообщения:    

    Великолепная афера через торрент
    Скачать бесплатно Великолепная афера
    Великолепная афера скачать торрент
    Великолепная афера смотреть онлайн
    Cкачать фильм Великолепная афера бесплатно
    Великолепная афера скачать торрент в хорошем качестве
    Великолепная афера смотреть онлайн бесплатно в хорошем качестве


    Вы не можете начинать темы
    Вы не можете отвечать на сообщения
    Вы не можете редактировать свои сообщения
    Вы не можете удалять свои сообщения
    Вы не можете голосовать в опросах
    Вы не можете прикреплять файлы к сообщениям
    Вы можете скачивать файлы