Ссылка на приватное зеркало нашего сайта всего за 1$. Внимание количество ограничено!!!

2 сезон

iTunes

1 сезон

1

2 сезон

2 сезон

iTunes

1 сезон

RePack

30

Новинка

ВАЖНО

ИГРА 18+

pack

RePack

MK11
pack

Забери бонус

RePack

jed

!!Акция!!

Alien_Rage

RePack

fifa19

RePack

Assassins Creed: Odyssey

RePack

NEED FOR SPEED™ PAYBACK

4 сезон

9 сезон

Бесстыжие 9 сезон

Все сериалы

все сериалы на PB.wtf

RePack

FAR CRY 5
  

Больница Никербокер / The Knick / Сезон: 2 / Серии 1-9 из 10 (Стивен Содерберг / Steven Soderbergh) [2015, США, драма, HDTVRip-AVC, MVO] [BaibaKo] pb.wtf

Больница Никербокер через торрент pb.wtf

Размер: 8.46 GB | Добавлен: 4 года 10 мес. назад | Торрент скачан:23 раза
Скачать  

18-10-2015 03:41 Больница Никербокер Скачать торрент  

Больница Никербокер / The Knick
«С чего-то ведь начиналась современная медицина»


  • Год выпуска: 2015
  • Страна: США
  • Жанр: драма
  • Продолжительность: 00:55:02
  • Перевод: Профессиональный многоголосый закадровый) [BaibaKo]

  • Режиссер: Стивен Содерберг / Steven Soderbergh
  • В ролях:

    Грейнджер Хайнс (Captain August Robertson), Катрина Префонтейн (Upper Class Pedestrian), Клайв Оуэн (Dr. John W. Thackery), Андре Холлэнд (Dr. Algernon Edwards), Джереми Бобб (Herman Barrow), Джульет Райлэнс (Cornelia Robertson), Ив Хьюсон (Lucy Elkins), Майкл Ангарано (Dr. Bertie Chickering Jr.), Кэра Сеймур (Sister Harriet), Эрик Джонсон (Dr. Everett Gallinger), Ying Ying Li (Lin-Lin), Сюзанн Савой (Victoria Robertson)


  • Доктор Джон Тэкери работает хирургом в нью-йоркской больнице. Здесь применяют передовые методы и стараются помочь всем пациентам - но до изобретения лазерного скальпеля и компьютерной томографии еще очень далеко, а в карету скорой помощи запрягают лошадей.
  • Рейтинг:



  • Качество: HDTVRip
  • Формат: :MPEG-4
  • Видео кодек: AVC
  • Аудио кодек: AC3
  • Видео: 1567 Кбит/сек, 1024*576 (16:9), в 23,976 кадра/сек, AVC
  • Аудио №1: русский 384 Кбит/сек, 48,0 КГц, 16 бит, 6 каналов, AC-3 |[BaibaKo]|
  • Аудио №2: английский 384 Кбит/сек, 48,0 КГц, 16 бит, 6 каналов, AC-3
  • Релиз от: GEKADOL

    Код:

    Внимание! Раздача ведётся путём добавления новых серий; при каждом добавлении создаётся новый торрент. Чтобы начать докачку новой серии, пользователям необходимо сделать следующее:
    (1) остановить скачивание,
    (2) удалить старый торрент у себя из клиента (старые серии удалять не надо),
    (3) скачать новый торрент и запустить его у себя в клиенте вместо старого, при этом указать клиенту путь в старую папку куда и должно происходить скачивание новых серий.
    Ваш клиент при этом должен произвести хеширование (проверку) старой папки (если не производит сам - помогите ему сделать это), и будет докачивать только те серии которых у вас ещё нет. Старые серии при этом не удаляются, а продолжают раздаваться!
    Eсли вы уже удалили старые серии, то предотвратить повторную закачку старых серий можно, отжав галочку в соответствующих местах при запуске нового торрента. По возможности, желательно не удалять старые серии как можно дольше чтобы релизёр не столько продолжал раздавать старые серии, а смог сконцентрироваться на новых.


    Код:

    Общее
    Полное имя                               : H:\Больница Никербокер\The.Knick.s02e01.HDTVRip-AVC.Rus.Eng.BaibaKo.tv.mp4
    Формат                                   : MPEG-4
    Профиль формата                          : Base Media
    Идентификатор кодека                     : isom
    Размер файла                             : 921 Мбайт
    Продолжительность                        : 55 м.
    Общий поток                              : 2340 Кбит/сек
    Программа кодирования                    : XviD4PSP 7.0.163
    encoding_info                            : MATROSKA / WEBM > MP4 / H264 > X264 CBR 1700kbps HQ1 / AC3 > AC3 CBR 384kbps / AC3 > AC3 CBR 384kbps

    Видео
    Идентификатор                            : 1
    Формат                                   : AVC
    Формат/Информация                        : Advanced Video Codec
    Профиль формата                          : High@L3.1
    Параметр CABAC формата                   : Да
    Параметр ReFrames формата                : 4 кадра
    Идентификатор кодека                     : avc1
    Идентификатор кодека/Информация          : Advanced Video Coding
    Продолжительность                        : 55 м.
    Битрейт                                  : 1567 Кбит/сек
    Номинальный битрейт                      : 1700 Кбит/сек
    Ширина                                   : 1024 пикселя
    Высота                                   : 576 пикселей
    Соотношение сторон                       : 16:9
    Режим частоты кадров                     : Постоянный
    Частота кадров                           : 23,976 кадра/сек
    Цветовое пространство                    : YUV
    Субдискретизация насыщенности            : 4:2:0
    Битовая глубина                          : 8 бит
    Тип развёртки                            : Прогрессивная
    Бит/(Пиксели*Кадры)                      : 0.111
    Размер потока                            : 617 Мбайт (67%)
    Библиотека кодирования                   : x264 core 148 r2579M 73ae2d1
    Настройки программы                      : cabac=1 / ref=3 / deblock=1:-1:-1 / analyse=0x3:0x133 / me=hex / subme=7 / psy=1 / psy_rd=1,00:0,20 / mixed_ref=1 / me_range=16 / chroma_me=1 / trellis=1 / 8x8dct=1 / cqm=0 / deadzone=21,11 / fast_pskip=1 / chroma_qp_offset=-3 / threads=6 / lookahead_threads=1 / sliced_threads=0 / nr=0 / decimate=1 / interlaced=0 / bluray_compat=0 / constrained_intra=0 / bframes=3 / b_pyramid=2 / b_adapt=2 / b_bias=0 / direct=3 / weightb=1 / open_gop=0 / weightp=2 / keyint=230 / keyint_min=23 / scenecut=40 / intra_refresh=0 / rc_lookahead=40 / rc=cbr / mbtree=1 / bitrate=1700 / ratetol=1,0 / qcomp=0,60 / qpmin=0 / qpmax=69 / qpstep=4 / vbv_maxrate=1700 / vbv_bufsize=1700 / nal_hrd=none / filler=0 / ip_ratio=1,40 / aq=1:1,00
    Цветовой диапазон                        : Limited
    Основные цвета                           : BT.709
    Характеристики трансфера                 : BT.709
    Коэффициенты матрицы                     : BT.709

    Аудио #1
    Идентификатор                            : 2
    Формат                                   : AC-3
    Формат/Информация                        : Audio Coding 3
    Расширение режима                        : CM (complete main)
    Параметр Endianness формата              : Big
    Идентификатор кодека                     : ac-3
    Продолжительность                        : 55 м.
    Вид битрейта                             : Постоянный
    Битрейт                                  : 384 Кбит/сек
    Каналы                                   : 6 каналов
    Расположение каналов                     : Front: L C R, Side: L R, LFE
    Частота                                  : 48,0 КГц
    Битовая глубина                          : 16 бит
    Метод сжатия                             : С потерями
    Размер потока                            : 151 Мбайт (16%)
    Язык                                     : Russian

    Аудио #2
    Идентификатор                            : 3
    Формат                                   : AC-3
    Формат/Информация                        : Audio Coding 3
    Расширение режима                        : CM (complete main)
    Параметр Endianness формата              : Big
    Идентификатор кодека                     : ac-3
    Продолжительность                        : 55 м.
    Вид битрейта                             : Постоянный
    Битрейт                                  : 384 Кбит/сек
    Каналы                                   : 6 каналов
    Расположение каналов                     : Front: L C R, Side: L R, LFE
    Частота                                  : 48,0 КГц
    Битовая глубина                          : 16 бит
    Метод сжатия                             : С потерями
    Размер потока                            : 151 Мбайт (16%)
    Язык                                     : English




    Скриншоты:
    скриншот   скриншот   скриншот   скриншот   скриншот   скриншот  
    скриншот  

    Раздача ведётся путём добавления новых серий. Добавлена 9 серия (25.12.2015).Просьба перекачать торрент файл.

    pb.wtf



  • Скачать Больница Никербокер через торрент http://i65.fastpic.ru/big/2015/1018/ff/84ddd1d59c44c74b3274365d1c88b8ff.jpg Скачать фильм Больница Никербокер через торрент бесплантно в хорошем качестве qw.png Доктор Джон Тэкери работает хирургом в нью-йоркской больнице. Здесь применяют передовые методы и стараются помочь всем пациентам - ... 9.3 10 14
    Info! Серебряная раздача, засчитывается только 50% скачанного.
    Торрент: Зарегистрирован [2015-12-25 00:55] · скачан: 23 раз
    Статус: √ проверено
    Размер: 8.46 GB
    Как cкачать? Как скачать Больница Никербокер через торрент | qTorrent



    Последний раз редактировалось: GEKADOL (2015-12-25 00:55), всего редактировалось 8 раз(а)

    28-11-2019 20:33  

    Отключить всю рекламу на сайте

    18-10-2015 07:22 Больница Никербокер Скачать торрент  

    отличный сериал дождусь проф озвучку от алексовpb.wtf



    18-10-2015 09:53 Больница Никербокер Скачать торрент  

    сериал отличный лучшая роль оуэнаpb.wtf



    15-12-2015 02:49 Больница Никербокер Скачать торрент  

    куу писал(а):

    сериал отличный лучшая роль оуэна

    На 100% стобой согласен!pb.wtf



    30-01-2016 07:05 Больница Никербокер Скачать торрент  

    Где 10?pb.wtf



    11-02-2016 13:37 Больница Никербокер Скачать торрент  

    Где 10я серия??? Надоело ждать уже!pb.wtf



      Дорогой пользователь! Огромная просьба, поблагодарите релизера, оцените раздачу и оставьте свои комментарий, если Вы скачали Больница Никербокер через торрент бесплатно! Внесите свою лепту в развитие PiratBit!
      Комментировать посты могут только пользователи прошедшие не сложную регистрацию
      Показать сообщения:    

      Больница Никербокер через торрент
      Скачать бесплатно Больница Никербокер
      Больница Никербокер скачать торрент
      Больница Никербокер смотреть онлайн
      Cкачать фильм Больница Никербокер бесплатно
      Больница Никербокер скачать торрент в хорошем качестве
      Больница Никербокер смотреть онлайн бесплатно в хорошем качестве


      Вы не можете начинать темы
      Вы не можете отвечать на сообщения
      Вы не можете редактировать свои сообщения
      Вы не можете удалять свои сообщения
      Вы не можете голосовать в опросах
      Вы не можете прикреплять файлы к сообщениям
      Вы можете скачивать файлы