2 сезон

iTunes

MVO

1

2 сезон

iTunes

iTunes

1 сезон

RePack

30

Новинка

ВАЖНО

ИГРА 18+

pack

RePack

MK11
pack

Легкие деньги

RePack

jed

RePack

fifa19

RePack

RDR2

RePack

NEED FOR SPEED™ PAYBACK

4 сезон

9 сезон

Бесстыжие 9 сезон

Все сериалы

все сериалы на PB.wtf

RePack

FAR CRY 5

Anonymous, доброе утро, мы не успеваем собрать деньги на оплату серверов за декабрь и январь, помогите нам пожалуйста в это трудное время. В качестве благодарности мы отключим Вам всю рекламу на сайте (укажите свой ник в строку Ваше имя)!

×
  
Magnet ссылка

Тихоокеанский рубеж / Pacific Rim (Гильермо дель Торо) [2013 г., фантастика, фэнтези, боевик, приключения, HDRip be Dean24] (Дубляж Лицензия) pb.wtf

Тихоокеанский рубеж через торрент pb.wtf

Размер: 2.18 GB | Добавлен: 5 лет 3 мес. назад | Торрент скачан:572 раза
Скачать  

18-10-2015 07:57 Тихоокеанский рубеж Скачать торрент  

Тихоокеанский рубеж / Pacific Rim
Год выпуска: 2013
Страна: США
Жанр: фантастика, фэнтези, боевик, приключения
Продолжительность: 02:11:16
Перевод: Дубляж | Лицензия
Субтитры: Нет

Режиссер: Гильермо дель Торо
Продюссер: Гильермо дель Торо, Джон Дж. Джашни, Мэри Пэрент
Сценарий: Трэвис Бичем, Гильермо дель Торо

Бюджет: $190 000 000
Премьера в мире: 2 июля 2013



В ролях: Чарли Ханнэм, Идрис Эльба, Ринко Кикути, Роберт Казински, Макс Мартини, Чарли Дэй, Берн Горман, Клифтон Коллинз мл., Рон Перлман, Диего Клаттенхофф

Описание: Когда из морских глубин поднялись легионы чудовищ, известных как Кайдзу, началась война, которой суждено было забрать миллионы жизней и свести «человеческие ресурсы» почти к нулю всего за несколько лет. Чтобы сражаться с пришельцами, было создано специальное оружие: огромные роботы, названные Джегерами, они управлялись одновременно двумя пилотами, чьи сознания соединены с помощью нейронной связи. Но даже Джегеры оказываются почти бессильны перед лицом безжалостных Кайдзу. На грани поражения у защитников человечества нет выбора, кроме как обратиться к двум весьма сомнительным героям — никому не нужному бывшему пилоту и неопытному стажеру — которые объединились, чтобы повести в бой некогда легендарного, но сейчас устаревшего Джегера. Вместе они оказываются единственной надеждой человечества, последним препятствием перед надвигающимся апокалипсисом.

Качество: HDRip | BDRip 720p
Формат: AVI
Видео кодек: XviD
Аудио кодек: AC3
Видео: 704x384 (1.83:1), 23.976 fps, XviD build 50 ~1984 kbps avg, 0.31 bit/pixel
Аудио: 48 kHz, AC3 Dolby Digital, 3/2 (L,C,R,l,r) + LFE ch, ~384 kbps



Автор рипа: Dean24
|
Общее
Полное имя : D:\Мои документы\Фильмы\Сайт\Pacific.Rim.HDRip.avi
Формат : AVI
Формат/Информация : Audio Video Interleave
Профиль формата : OpenDML
Размер файла : 2,18 Гбайт
Продолжительность : 2 ч. 11 м.
Общий поток : 2376 Кбит/сек
Программа кодирования : VirtualDubMod 1.5.10.3 | www.virtualdub-fr.org || (build 2550/release)
Библиотека кодирования : VirtualDubMod build 2550/release

Видео
Идентификатор : 0
Формат : MPEG-4 Visual
Профиль формата : Advanced Simple@L5
Параметр BVOP формата : 3
Параметр QPel формата : Нет
Параметр GMC формата : Без точки перехода
Параметр матрицы формата : Default (H.263)
Идентификатор кодека : XVID
Идентификатор кодека/Подсказка : XviD
Продолжительность : 2 ч. 11 м.
Битрейт : 1980 Кбит/сек
Ширина : 704 пикселя
Высота : 384 пикселя
Соотношение сторон : 1,85:1
Частота кадров : 23,976 кадра/сек
Цветовое пространство : YUV
Субдискретизация насыщенности : 4:2:0
Битовая глубина : 8 бит
Тип развёртки : Прогрессивная
Метод сжатия : С потерями
Бит/(Пиксели*Кадры) : 0.305
Размер потока : 1,82 Гбайт (83%)
Библиотека кодирования : XviD 1.2.1 (UTC 2008-12-04)

Аудио
Идентификатор : 1
Формат : AC-3
Формат/Информация : Audio Coding 3
Расширение режима : CM (complete main)
Параметр Endianness формата : Big
Идентификатор кодека : 2000
Продолжительность : 2 ч. 11 м.
Вид битрейта : Постоянный
Битрейт : 384 Кбит/сек
Каналы : 6 каналов
Расположение каналов : Front: L C R, Side: L R, LFE
Частота : 48,0 КГц
Битовая глубина : 16 бит
Метод сжатия : С потерями
Размер потока : 361 Мбайт (16%)
Выравнивание : Разделение по промежуткам
Продолжительность промежутка : 42 мс. (1,00 видеокадр)
Время предзагрузки промежутка : 500 мс.

pb.wtf



Скачать Тихоокеанский рубеж через торрент http://i58.fastpic.ru/big/2015/1018/89/08971298767934e21885782e7d87a589.png Скачать фильм Тихоокеанский рубеж через торрент бесплантно в хорошем качестве Описание: Когда из морских глубин поднялись легионы чудовищ, известных как Кайдзу, началась война, которой суждено было забрать миллионы ... 10 10 21
Info! Золотая раздача, скачанное не засчитывается.
Торрент: Зарегистрирован [2015-10-18 07:57] · скачан: 572 раз
Статус: √ проверено
Размер: 2.18 GB
Как cкачать? Как скачать Тихоокеанский рубеж через торрент | UTorrent

% Раздел Тема Автор DL S | L
Сборники и Сиквелы (48-60 fps) [ 8.32 GB ] Тихоокеанский рубеж: Дилогия / Pacific Rim: Dilogy [2013-2018 BDRip - HEVC 1080p 10 bit 60 FPS DUB] dd2d3 Скачать
2 | 0
Сборники (HD Video) [ 15.54 GB ] Тихоокеанский рубеж: Дилогия / Pacific Rim: Dilogy [2013-2018 BDRip-HEVC 1080p ] DUB [] bober100 Скачать
1 | 0
Ultra HD (UHD: 2K, 4K, 8K) — видео сверхвысокой чёткости [ 22.74 GB ] Тихоокеанский рубеж / Pacific Rim [2013 UHD BDRip - HEVC 2160p ] 2xDUB 2xAVO Леонид Ильич Скачать
2 | 0
Ultra HD (UHD: 2K, 4K, 8K) — видео сверхвысокой чёткости [ 52.88 GB ] Тихоокеанский рубеж / Pacific Rim [2013 UHD BDRip 2160p] [SDR] DUB + 2xAVO sheker187 Скачать
1 | 0
3D Фильмы [ 27.92 GB ] Тихоокеанский рубеж в 3Д / Pacific Rim 3D [2013 BDRip 1080p] OverUnder / Вертикальная стереопара [ ] serega768 Скачать
1 | 0
Ultra HD (UHD: 2K, 4K, 8K) — видео сверхвысокой чёткости [ 60.11 GB ] Тихоокеанский рубеж 2 / Pacific Rim Uprising [2018 UHD BDRemux 2160p] [Dolby Vision TV] DUB [] bober100 Скачать
1 | 0
Фильмы [HD 720p, 1080p] (Хороший звук DUB, MVO) [ 6.64 GB ] Тихоокеанский рубеж 2 / Pacific Rim Uprising [2018 BDRip 720p] DUB [] bober100 Скачать
1 | 0

28-11-2019 20:33  

Отключить всю рекламу на сайте

19-09-2016 15:45 Тихоокеанский рубеж Скачать торрент  

Хуенгелион головного мозга.pb.wtf



    Дорогой пользователь! Огромная просьба, поблагодарите релизера, оцените раздачу и оставьте свои комментарий, если Вы скачали Тихоокеанский рубеж через торрент бесплатно! Внесите свою лепту в развитие PiratBit!
    Комментировать посты могут только пользователи прошедшие не сложную регистрацию
    Показать сообщения:    

    Тихоокеанский рубеж через торрент
    Скачать бесплатно Тихоокеанский рубеж
    Тихоокеанский рубеж скачать торрент
    Тихоокеанский рубеж смотреть онлайн
    Cкачать фильм Тихоокеанский рубеж бесплатно
    Тихоокеанский рубеж скачать торрент в хорошем качестве
    Тихоокеанский рубеж смотреть онлайн бесплатно в хорошем качестве


    Вы не можете начинать темы
    Вы не можете отвечать на сообщения
    Вы не можете редактировать свои сообщения
    Вы не можете удалять свои сообщения
    Вы не можете голосовать в опросах
    Вы не можете прикреплять файлы к сообщениям
    Вы можете скачивать файлы